Статистика раздачи
Размер:  135 MB   |    Зарегистрирован:  10 месяцев   |    .torrent скачан:  24 раза   |   

Пиры будут получены при скачивании

 

Скачать порно Etsuraku no Tane / Удовольствие в наследие через торрент бесплатно :: UnionPron.org

 
 
Автор Сообщение

Sakura

avatar Sakura


Etsuraku no Tane / 悦楽の胤 / Удовольствие в наследие

Год производства: 2015 г.
Жанр: School, Students, Teachers, Yuri, Tentacle
Серии: ep. 1 of 1
Продолжительность: 22mn 40s
Цензура: Есть во всех файлах

Озвучка: Японская оригинальная
Озвучка: Русская любительская (женская одноголосая) [Yamatori] Внешняя
Субтитры: Русские [MrHimera] Перевод низкого качества Внешние ASS
Субтитры: Английские [SubDESU-H] Внешние ASS
Субтитры: Польские [Nyan] Внешние ASS
Субтитры: Китайские [Maho.sub] [Okazu.Sub] Внешние ASS

Автор оригинала: Wendy Bell
Студия: Studio Eromatick

Описание: Это "нечто" растет и питается женскими выделениями во время наибольшего состояния возбуждения. И чем больше "оно" расло, тем больше удовольствия получала Идзуки. Чтобы выжить, это "нечто" должно захватывать все больше пространства, однако когда Издзуки начала понимать природу этого "нечто", остановиться уже было невозможно.

Рецензия: прошел одноименную игру и пришел к выводу, что мультик шлак.

во-первых, по игре расказывается ясно и понятно откуда взялись эти шупальцы. Главная героиня - Ицуки (длинные волосы с лучиком) и весь сюжет крутится вокруг нее. Отдельная любовная линия между Ицуки и Хиори (девочка с короткими косичками). Весьма красиво все, зря в мультике этого не показали ввиде действия, а только один акт в раздевалке. На самом деле там очень много красивых моментов по игре.

Другая девочка с красной заколкой которая, она по характеру злобная(ну обижали ее в школе), и решила заразить весь класс в школе этими шупальцами.

Также по сюжету в конце с помощью магии можно избавиться от щупалец.

Вообщем, если бы они сделали нормальный мультик из 3 частей.
1. часть Ицуки-Хиори,
2. Девочка с заколкой - остальные девочки в школе.
3. Щупальцы до добра не доведут - с помощью магии избавляются.

Получился бы просто отпадный мультик. А так... шлак.
© xao1700

Качество видео: BDRip
Разрешение видео: 720p
Формат видео: MP4
Видео: 1280-720, 16-9, 23.976 fps, AVC, 510 Kbps
Аудио 1: jpn AAC, Stereo, 48.0 KHz, 121 Kbps
Аудио 2: rus MP3, Stereo, 44.1 KHz, 192 Kbps
General
Complete name : Etsuraku_no_tane_01_[BDrip][6ECFEF52].mp4
Format : MPEG-4
Format profile : Base Media
Codec ID : isom
File size : 103 MiB
Duration : 22mn 40s
Overall bit rate mode : Variable
Overall bit rate : 637 Kbps
Encoded date : UTC 1970-01-01 00:00:00
Tagged date : UTC 1970-01-01 00:00:00
Writing application : Lavf52.87.1

Video
ID : 1
Format : AVC
Format/Info : Advanced Video Codec
Format profile : High 10@L5.1
Format settings, CABAC : Yes
Format settings, ReFrames : 16 frames
Codec ID : avc1
Codec ID/Info : Advanced Video Coding
Duration : 22mn 40s
Bit rate : 510 Kbps
Width : 1 280 pixels
Height : 720 pixels
Display aspect ratio : 16:9
Frame rate mode : Constant
Frame rate : 23.976 fps
Color space : YUV
Chroma subsampling : 4:2:0
Bit depth : 10 bits
Scan type : Progressive
Bits/(Pixel*Frame) : 0.023
Stream size : 82.8 MiB (80%)
Writing library : x264 core 142 r2431+42 c69a006 tMod [10-bit@all X86_64]
Encoding settings : cabac=1 / ref=16 / deblock=1:0:0 / analyse=0x3:0x133 / me=umh / subme=10 / psy=1 / fade_compensate=0.00 / psy_rd=0.30:0.00 / mixed_ref=1 / me_range=32 / chroma_me=1 / trellis=2 / 8x8dct=1 / cqm=0 / deadzone=21,11 / fast_pskip=1 / chroma_qp_offset=-2 / threads=2 / lookahead_threads=1 / sliced_threads=0 / nr=0 / decimate=1 / interlaced=0 / bluray_compat=0 / constrained_intra=0 / fgo=0 / bframes=16 / b_pyramid=2 / b_adapt=2 / b_bias=0 / direct=3 / weightb=1 / open_gop=0 / weightp=2 / keyint=240 / keyint_min=30 / scenecut=40 / intra_refresh=0 / rc_lookahead=240 / rc=crf / mbtree=1 / crf=19.0000 / qcomp=0.60 / qpmin=0:0:0 / qpmax=51:51:51 / qpstep=4 / ip_ratio=1.40 / aq=1:0.60 / aq-sensitivity=10.00 / aq-factor=1.00:1.00:1.00 / aq2=0 / aq3=0
Encoded date : UTC 1970-01-01 00:00:00
Tagged date : UTC 1970-01-01 00:00:00

Audio
ID : 2
Format : AAC
Format/Info : Advanced Audio Codec
Format profile : LC
Codec ID : 40
Duration : 22mn 40s
Bit rate mode : Variable
Bit rate : 121 Kbps
Channel(s) : 2 channels
Channel positions : Front: L R
Sampling rate : 48.0 KHz
Compression mode : Lossy
Stream size : 19.6 MiB (19%)
Encoded date : UTC 1970-01-01 00:00:00
Tagged date : UTC 1970-01-01 00:00:00
Трекер:  [ 02-Мар-2016 18:00 ]

Размер .torrent файла 11 KB


Размер: 135 MB
Хэш (hash) релиза: e1d8877b817b413c03f0d089f3c3d2fca77dc176
Подписка на обновления:

Еще никто не оставлял запись к записи скачать торрент Etsuraku no Tane Удовольствие в наследие . Будь первым!

!Обратная связь
//main.js show_panel