Статистика раздачи
Размер:  141 MB   |    Зарегистрирован:  1 год   |    .torrent скачан:  82 раза   |   

Пиры будут получены при скачивании

 

Скачать порно A Size Classmate / Одноклассница с первым размером через торрент бесплатно :: UnionPron.org

 
 
Автор Сообщение

Sakura

avatar Sakura


A Size Classmate / Aサイズ クラスメイト / Одноклассница с первым размером

Год производства: 2016 г.
Жанр: School, Virgin, Rape, Oral sex, Group sex, Handjob
Серии: ep. 1 of _
Продолжительность: 16mn 54s
Цензура: Есть во всех файлах

Озвучка: Японская Оригинальная
Субтитры: Английские [HH] [SubDESU-H] Внешние ASS
Субтитры: Китайские [Maho.sub] Внешние ASS

Автор оригинала: Okada Kou
Описание: Сидели одноклассники и делали домашку. Потом одной девчонке позвонила мама, и она ушла. Другая девчонка парней не вдохновляла и они, вместо учёбы, начали обсуждать её личную жизнь. Ничем хорошим это не кончилось.

anidb

Качество видео: DLversion
Разрешение видео: 480p
Формат видео: MP4
Видео: 720-480, 16-9, VFR, AVC, 911 Kbps
Аудио 1: AAC, Stereo, 253 Kbps
General
Complete name : A size classmate 01 [VFR][C1DC0CA3].mp4
Format : MPEG-4
Format profile : Base Media / Version 2
Codec ID : mp42
File size : 141 MiB
Duration : 16mn 54s
Overall bit rate mode : Variable
Overall bit rate : 1 168 Kbps
Encoded date : UTC 2016-02-06 09:45:06
Tagged date : UTC 2016-02-06 09:45:06

Video
ID : 1
Format : AVC
Format/Info : Advanced Video Codec
Format profile : High@L4
Format settings, CABAC : Yes
Format settings, ReFrames : 5 frames
Codec ID : avc1
Codec ID/Info : Advanced Video Coding
Duration : 16mn 54s
Bit rate : 911 Kbps
Maximum bit rate : 3 040 Kbps
Width : 720 pixels
Height : 480 pixels
Display aspect ratio : 16:9
Original display aspect ratio : 16:9
Frame rate mode : Variable
Frame rate : 25.285 fps
Original frame rate : 29.970 fps
Minimum frame rate : 9.990 fps
Maximum frame rate : 119.880 fps
Standard : NTSC
Color space : YUV
Chroma subsampling : 4:2:0
Bit depth : 8 bits
Scan type : Progressive
Bits/(Pixel*Frame) : 0.104
Stream size : 110 MiB (78%)
Writing library : x264 core 123 r2184+681M 5d72658
Encoding settings : cabac=1 / ref=5 / deblock=1:-2:-2 / analyse=0x3:0x113 / me=umh / subme=7 / psy=1 / fade_compensate=0.00 / psy_rd=1.00:0.00 / mixed_ref=1 / me_range=32 / chroma_me=1 / trellis=1 / 8x8dct=1 / cqm=0 / deadzone=21,11 / fast_pskip=1 / chroma_qp_offset=-2 / threads=7 / sliced_threads=1 / slices=7 / nr=0 / decimate=1 / interlaced=0 / bluray_compat=0 / constrained_intra=0 / fgo=0 / bframes=3 / b_pyramid=2 / b_adapt=2 / b_bias=0 / direct=3 / weightb=1 / open_gop=0 / weightp=2 / keyint=250 / keyint_min=25 / scenecut=40 / intra_refresh=0 / rc_lookahead=40 / rc=crf / mbtree=1 / crf=15.0000 / qcomp=0.60 / qpmin=0 / qpmax=69 / qpstep=4 / ip_ratio=1.40 / aq=1:1.00
Encoded date : UTC 2016-02-06 09:45:06
Tagged date : UTC 2016-02-06 09:45:15

Audio
ID : 2
Format : AAC
Format/Info : Advanced Audio Codec
Format profile : LC
Codec ID : 40
Duration : 16mn 54s
Bit rate mode : Variable
Bit rate : 253 Kbps
Maximum bit rate : 286 Kbps
Channel(s) : 2 channels
Channel positions : Front: L R
Sampling rate : 48.0 KHz
Compression mode : Lossy
Stream size : 30.6 MiB (22%)
Encoded date : UTC 2016-02-06 09:45:07
Tagged date : UTC 2016-02-06 09:45:15
Трекер:  [ 01-Мар-2016 18:30 ]

Размер .torrent файла 12 KB


Размер: 141 MB
Хэш (hash) релиза: 6f4346b9d0a86798ef967b72cc17927018630946
Подписка на обновления:

Еще никто не оставлял запись к записи скачать торрент A Size Classmate Одноклассница с первым размером . Будь первым!

!Обратная связь
//main.js show_panel