Статистика раздачи
Размер:  1.43 GB   |    Зарегистрирован:  1 год 3 месяца   |    .torrent скачан:  49 раз   |   

Пиры будут получены при скачивании

 

Скачать порно Aunt Peg / Тётя Пег , Cal Vista через торрент бесплатно :: UnionPron.org

 
 
Автор Сообщение

Sakura

avatar Sakura


Aunt Peg / Тётя Пег

Год производства: 1980 г.
Страна: USA
Жанр: Classic, Feature, Anal
Продолжительность: 01:18:48
Язык: Английский

Режиссер: Anthony Spinelli (as Wes Brown)
Студия: Cal Vista (VCX)

В ролях: Juliet Anderson, ,Seka, Serena, Holly McCall, Donna Hart, Sharon Kane, Robyn Whitting, Billy Dee, David Morris, Jamie Gillis, John Holmes, Michael Morrison, Mike Ranger, Mike Horner

Описание: (IAFD) Джульет Андерсон был 41 год, когда она снялась в роли тёти Peg, и я никогда не видел чтобы женщина её возраста выглядела так хорошо. Вы хотели бы иметь тетю, как тетя Пег. Хорошее определенно перевешивает плохое здесь.

Доп. информация: IAFD

[url=...1998670]DVD[/url]
Спасибо - Wonders
Качество видео: DVDRip-AVC
Формат видео: MKV
Видео: x264 | 696x536 | 23,976 кадра/сек | 2361 Кбит/сек | 0.264
Аудио: AC-3 | 48,0 КГц | 2 канала | 192 Кбит/сек
Формат : Matroska
Версия формата : Version 2
Размер файла : 1,43 Гбайт
Продолжительность : 1 ч. 18 м.
Общий поток : 2605 Кбит/сек
Название фильма : Aunt Peg (1980) - релиз для PORNOLAB.NET
Дата кодирования : UTC 2016-03-01 10:18:44
Программа кодирования : mkvmerge v7.9.0 (''Birds'') 32bit
Библиотека кодирования : libebml v1.3.1 + libmatroska v1.4.2
Обложка : Yes
Attachments : cover.jpg

Видео
Идентификатор : 1
Формат : AVC
Формат/Информация : Advanced Video Codec
Профиль формата : High@L3.1
Параметр CABAC формата : Да
Параметр ReFrames формата : 8 кадров
Идентификатор кодека : V_MPEG4/ISO/AVC
Продолжительность : 1 ч. 18 м.
Битрейт : 2361 Кбит/сек
Ширина : 696 пикселей
Высота : 536 пикселей
Соотношение сторон : 1,299
Режим частоты кадров : Постоянный
Частота кадров : 23,976 (24000/1001) кадра/сек
Цветовое пространство : YUV
Субдискретизация насыщенности : 4:2:0
Битовая глубина : 8 бит
Тип развёртки : Прогрессивная
Бит/(Пиксели*Кадры) : 0.264
Размер потока : 1,30 Гбайт (91%)
Библиотека кодирования : x264 core 148 r2665 a01e339
Настройки программы : cabac=1 / ref=8 / deblock=1:0:0 / analyse=0x3:0x133 / me=umh / subme=9 / psy=1 / psy_rd=0.75:0.00 / mixed_ref=1 / me_range=24 / chroma_me=1 / trellis=2 / 8x8dct=1 / cqm=0 / deadzone=21,11 / fast_pskip=1 / chroma_qp_offset=-2 / threads=4 / lookahead_threads=1 / sliced_threads=0 / nr=0 / decimate=0 / interlaced=0 / bluray_compat=0 / constrained_intra=0 / bframes=5 / b_pyramid=2 / b_adapt=2 / b_bias=0 / direct=1 / weightb=1 / open_gop=0 / weightp=2 / keyint=250 / keyint_min=23 / scenecut=40 / intra_refresh=0 / rc=crf / mbtree=0 / crf=16.5 / qcomp=0.60 / qpmin=0 / qpmax=69 / qpstep=4 / ip_ratio=1.40 / pb_ratio=1.30 / aq=1:0.80
Default : Да
Forced : Нет

Аудио
Идентификатор : 2
Формат : AC-3
Формат/Информация : Audio Coding 3
Расширение режима : CM (complete main)
Параметр Endianness формата : Big
Идентификатор кодека : A_AC3
Продолжительность : 1 ч. 18 м.
Вид битрейта : Постоянный
Битрейт : 192 Кбит/сек
Каналы : 2 канала
Расположение каналов : Front: L R
Частота : 48,0 КГц
Частота кадров : 31,250 кадров/сек (1536 spf)
Метод сжатия : С потерями
Размер потока : 108 Мбайт (7%)
Язык : English
Default : Да
Forced : Нет

Меню
00:03:11.000 : :Scene 1. Donna Hart
00:07:54.000 : :Scene 2. Juliet Anderson
00:18:38.000 : :Scene 3. Juliet Anderson
00:25:57.000 : :Scene 4. Sharon Kane
00:33:03.000 : :Scene 5. Holly McCall, Juliet Anderson
00:41:15.000 : :Scene 6. Juliet Anderson
00:46:57.000 : :Scene 7. Juliet Anderson, Seka
00:59:14.000 : :Scene 8. Juliet Anderson, Serena
01:10:15.000 : :Scene 9. Juliet Anderson & Sharon Kane
Scene 1. Donna Hart, John Holmes
Scene 2. Juliet Anderson, Mike Horner
Scene 3. Juliet Anderson, Michael Morrison
Scene 4. Sharon Kane, David Morris
Scene 5. Holly McCall, Juliet Anderson, Billy Dee
Scene 6. Juliet Anderson
Scene 7. Juliet Anderson, Seka, Jamie Gillis
Scene 8. Juliet Anderson, Serena, Mike Ranger
Scene 9. Juliet Anderson, Sharon Kane
[url]...1034412[/url]
[url]...323730[/url]
Трекер:  [ 01-Мар-2016 17:00 ]

Размер .torrent файла 15 KB


Размер: 1.43 GB
Хэш (hash) релиза: bc16268b973886488a77776dea9e160e94012604
Подписка на обновления:

Еще никто не оставлял запись к записи скачать торрент Aunt Peg Тётя Пег . Будь первым!

!Обратная связь
//main.js show_panel