Статистика раздачи
Размер:  1.56 GB   |    Зарегистрирован:  1 год   |    .torrent скачан:  39 раз   |   

Пиры будут получены при скачивании

 

Скачать порно Neon Nights / Неоновые ночи через торрент бесплатно :: UnionPron.org

 
 
Автор Сообщение

Sakura

avatar Sakura


Neon Nights / Неоновые ночи

Год производства: 1981 г.
Страна: USA
Жанр: Feature, Classic
Продолжительность: 01:27:32
Язык: Английский

Режиссер: Cecil Howard
Студия: Command Video

В ролях: Veronica Hart, Lysa Thatcher, Kandi Barbour, Arcadia Lake, Jody Maxwell, Linda Vale, Ashley Moore, Eric Edwards, Jack Teague, Jamie Gillis, Roy Stuart, Cecil Howard

Описание: Neon Nights sets a standard against which all other films must be judged. Cecil Howard (the man behind Firestorm, The Last X-Rated Movie, Platinum Paradise, Snake Eyes, Babylon Pink, etc.) has given us a hot hard-core odyssey into the phantasmagorical mind of a troubled girl. He illuminates the blue-movie screen with all the tour de force of erotic invention. In bed, bewitched and motionless, Sandy is levitated in a remarkable sensual special-effects sequence that must be experienced. The bizarre storytelling reaches its carnal climax with a steamy, Fellini-esque orgy in which flashing lights, billowing smoke, and blissful faces all merge in a veritable celluloid bacchanal in which she gets thoroughly ravished. Visually there has never been an X-rated film like Neon Nights.

Доп. информация: http://www.iafd.com/title.rme/title=Neon+Nights/year=1981/neon-nights.htm

[url=...1151274]DVD[/url]
Спасибо - Desconecta sem motivo

Качество видео: DVDRip-AVC
Формат видео: MKV
Видео: х264 | 704х536 | 23,976 кадра/сек | 2309 Кбит/сек | 0.255
Аудио: AC-3 | 48,0 КГц | 2 канала | 192 Кбит/сек
Формат : Matroska
Версия формата : Version 2
Размер файла : 1,56 Гбайт
Продолжительность : 1 ч. 27 м.
Общий поток : 2552 Кбит/сек
Название фильма : Neon Nights (1981).mkv - релиз для PORNOLAB.NET
Дата кодирования : UTC 2016-02-26 08:34:30
Программа кодирования : mkvmerge v7.9.0 (''Birds'') 32bit
Библиотека кодирования : libebml v1.3.1 + libmatroska v1.4.2
Обложка : Yes
Attachments : cover.jpg

Видео
Идентификатор : 1
Формат : AVC
Формат/Информация : Advanced Video Codec
Профиль формата : High@L3.1
Параметр CABAC формата : Да
Параметр ReFrames формата : 8 кадров
Идентификатор кодека : V_MPEG4/ISO/AVC
Продолжительность : 1 ч. 27 м.
Битрейт : 2309 Кбит/сек
Ширина : 704 пикселя
Высота : 536 пикселей
Соотношение сторон : 4:3
Режим частоты кадров : Постоянный
Частота кадров : 23,976 (24000/1001) кадра/сек
Цветовое пространство : YUV
Субдискретизация насыщенности : 4:2:0
Битовая глубина : 8 бит
Тип развёртки : Прогрессивная
Бит/(Пиксели*Кадры) : 0.255
Размер потока : 1,41 Гбайт (90%)
Библиотека кодирования : x264 core 148 r2665 a01e339
Настройки программы : cabac=1 / ref=8 / deblock=1:-1:-1 / analyse=0x3:0x133 / me=umh / subme=9 / psy=1 / psy_rd=1.00:0.00 / mixed_ref=1 / me_range=24 / chroma_me=1 / trellis=2 / 8x8dct=1 / cqm=0 / deadzone=21,11 / fast_pskip=1 / chroma_qp_offset=-2 / threads=4 / lookahead_threads=1 / sliced_threads=0 / nr=0 / decimate=0 / interlaced=0 / bluray_compat=0 / constrained_intra=0 / bframes=5 / b_pyramid=2 / b_adapt=2 / b_bias=0 / direct=1 / weightb=1 / open_gop=0 / weightp=2 / keyint=250 / keyint_min=23 / scenecut=40 / intra_refresh=0 / rc=crf / mbtree=0 / crf=17.5 / qcomp=0.60 / qpmin=0 / qpmax=69 / qpstep=4 / ip_ratio=1.40 / pb_ratio=1.30 / aq=1:0.60
Язык : English
Default : Нет
Forced : Нет
Цветовой диапазон : Limited
Коэффициенты матрицы : BT.601

Аудио
Идентификатор : 2
Формат : AC-3
Формат/Информация : Audio Coding 3
Расширение режима : CM (complete main)
Параметр Endianness формата : Big
Идентификатор кодека : A_AC3
Продолжительность : 1 ч. 27 м.
Вид битрейта : Постоянный
Битрейт : 192 Кбит/сек
Каналы : 2 канала
Расположение каналов : Front: L R
Частота : 48,0 КГц
Частота кадров : 31,250 кадров/сек (1536 spf)
Метод сжатия : С потерями
Размер потока : 120 Мбайт (8%)
Язык : English
Default : Да
Forced : Нет

Меню
00:00:25.000 : :Scene 1. Linda Vale
00:06:36.000 : :Scene 2. Lysa Thatcher
00:09:45.000 : :Scene 3. Lysa Thatcher
00:19:17.000 : :Scene 4. Kandi Barbour
00:31:37.000 : :Scene 5. Jody Maxwell, Lysa Thatcher
00:51:24.000 : :Scene 6. Veronica Hart
01:04:58.000 : :Scene 7. Arcadia Lake
01:11:04.000 : :Scene 8. Lysa Thatcher, Veronica Hart
01:15:13.000 : :Scene 9. Linda Vale
01:16:12.000 : :Scene 10 + 11. Lysa Thatcher
Scene 1. Linda Vale, Jamie Gillis
Scene 2. Lysa Thatcher
Scene 3. Lysa Thatcher, Jamie Gillis
Scene 4. Kandi Barbour, Ashley Moore
Scene 5. Jody Maxwell, Lysa Thatcher, Jack Teague
Scene 6. Veronica Hart, Eric Edwards
Scene 7. Arcadia Lake, Eric Edwards
Scene 8. Lysa Thatcher, Veronica Hart
Scene 9. Linda Vale, Jamie Gillis
Scene 10. Lysa Thatcher, Eric Edwards
Scene 11. Lysa Thatcher, Roy Stuart
[url]...1491283[/url]
[url]...629367[/url]
Трекер:  [ 28-Фев-2016 21:30 ]

Размер .torrent файла 16 KB


Размер: 1.56 GB
Хэш (hash) релиза: 1a58206162a0630937a4685c744f6679c750ae6b
Подписка на обновления:

Еще никто не оставлял запись к записи скачать торрент Neon Nights Неоновые ночи . Будь первым!

!Обратная связь
//main.js show_panel