Статистика раздачи
Размер:  1.56 GB   |    Зарегистрирован:  1 год 7 месяцев   |    .torrent скачан:  26 раз   |   

Пиры будут получены при скачивании

 

Скачать порно Um Gottes Willen - Der heilige Stab / По Воле Божей - Святой Жезл через торрент бесплатно :: UnionPron.org

 
 
Автор Сообщение

Sakura

avatar Sakura


Um Gottes Willen - Der heilige Stab | По Воле Божей - Святой Жезл
Год производства: 1990-е гг.
Страна: Германия | Germany
Жанр: Feature
Продолжительность: 01:24:46
Язык: Немецкий | German

Режиссер: Mario Salieri
Студия: Goldlight

В ролях: Monica Roccaforte, Joy Karin''s, Silvio Evangelista, Csila Star, Nicoletta Axin, Bruno SX, Francesco Malcom, Valentino, Walter Midolo and others.

Описание: Несколько иная вариация фильма на тему секса со священнослужителями! Много сцен перекликается с Sacro e profano ([url=...218225]659 MB[/url], [url=...1185934]830 MB[/url] и [url=...1550190]2.61 GB[/url])

Scene Breakdowns:
Scene 1. Joy Karin''s, Monica Roccaforte, Silvio Evangelista

Scene 7. Csila Star, Monica Roccaforte, Nicoletta Axin, Bruno SX, Francesco Malcom, Valentino, Walter Midolo
Scene 8. Melody Kord, Valentino
General
Format : MPEG-4
Format profile : Base Media / Version 2
Codec ID : mp42
File size : 1.56 GiB
Duration : 1h 24mn
Overall bit rate : 2 639 Kbps
Encoded date : UTC 2016-02-23 02:49:21
Tagged date : UTC 2016-02-23 02:49:21
stik :
iTunMOVI : <?xml version="1.0" encoding="UTF-8"?><!DOCTYPE plist PUBLIC "-//Apple Computer//DTD PLIST 1.0//EN" "http://www.apple.com/DTDs/PropertyList-1.0.dtd"><plist version="1.0"><dict><key>studio</key><string>studio</string><key>cast</key><array><dict><key>name</key><string></string></dict></array><key>directors</key><array><dict><key>name</key><string></string></dict></array><key>producers</key><array><dict><key>name</key><string></string></dict></array><key>codirectors</key><array><dict><key>name</key><string>codirector</string></dict></array><key>screenwriters</key><array><dict><key>name</key><string></string></dict></array></dict></plist>
Video #1
ID : 1
Format : AVC
Format/Info : Advanced Video Codec
Format profile : Main@L4.1
Format settings, CABAC : Yes
Format settings, ReFrames : 2 frames
Muxing mode : Container profile=Baseline@3.0
Codec ID : avc1
Codec ID/Info : Advanced Video Coding
Duration : 1h 24mn
Bit rate mode : Variable
Bit rate : 2 496 Kbps
Width : 768 pixels
Height : 576 pixels
Display aspect ratio : 4/3
Frame rate mode : Constant
Frame rate : 25.000 fps
Resolution : 24 bits
Colorimetry : 4:2:0
Scan type : Progressive
Bits/(Pixel*Frame) : 0.226
Stream size : 1.48 GiB (95%)
Audio #2
ID : 2
Format : AAC
Format/Info : Advanced Audio Codec
Format version : Version 4
Format profile : LC
Format settings, SBR : No
Codec ID : 40
Duration : 1h 24mn
Bit rate mode : Constant
Bit rate : 132.3 Kbps
Channel(s) : 2 channels
Channel positions : L R
Sampling rate : 48.0 KHz
Resolution : 16 bits
Stream size : 81.4 MiB (5%)
Качество видео: VHSRip
Формат видео: MP4
Видео: AVC, 768x576 (4:3), 25.000 fps, 2 496 Kbps (0.226 bit/pixel)
Аудио: AAC LC, 48.0 KHz, 2 ch, 132.3 Kbps, CBR
Трекер:  [ 28-Фев-2016 20:30 ]

Размер .torrent файла 16 KB


Размер: 1.56 GB
Хэш (hash) релиза: 3a626cbfff3793105ec3413cd043e393b593661e
Подписка на обновления:

Еще никто не оставлял запись к записи скачать торрент Um Gottes Willen - Der heilige Stab По Воле Божей - Святой Жезл . Будь первым!

!Обратная связь
//main.js show_panel