Статистика раздачи
Размер:  1.65 GB   |    Зарегистрирован:  10 месяцев   |    .torrent скачан:  55 раз   |   

Пиры будут получены при скачивании

 

Скачать порно Kan`in Tokkyuu: Michi Shio / Совращение в экспрессе: отрыв по-полной через торрент бесплатно :: UnionPron.org

 
 
Автор Сообщение

Sakura

avatar Sakura


Kan`in Tokkyuu: Michi Shio / 姦淫特急 満潮 / Совращение в экспрессе: отрыв по-полной

Год производства: 2010 г.
Жанр: Anal, BDSM, Big tits, Chikan, Molester, Group sex, Oral sex, Rape, Sex Toys
Серии: ep. 2 of 2
Продолжительность: 29mn 44s
Цензура: Есть во всех файлах

Язык: Японский
Озвучка: Оригинальная
Режиссер: Onijima
Автор оригинала: Tsurumiku
Студия: Y.O.U.C., Vanilla, Turumiku, Digital Works

Описание: Мичи Шио, так называется поезд в котором есть один вагоновожатый с особыми наклонностями, он собирает свой небольшой гарем из симпатичных девушек, которые садятся в его поезд, проделывая с каждой девушкой в отдельности разные штучки он оставляет их в вагоне на садомазо оборудование. В этом нелёгком деле ему помогает девушка в той же должности что и парень, но и с ней он проделывает разные грязные примочки.

anidb

Доп. информация: Первого диска у меня нет. У кого есть – забирайте раздачу.

Качество видео: DVD5
Формат видео: DVD Video
Видео: MPEG 2, 720-480, 16-9, 29.970 fps, 6 089 Kbps
Аудио 1: jpn, AC-3, 48.0 KHz, 192 Kbps, Stereo
General
Complete name : VIDEO_TS\VTS_01_1.VOB
Format : MPEG-PS
File size : 1 023 MiB
Duration : 22mn 19s
Overall bit rate mode : Variable
Overall bit rate : 6 408 Kbps

Video
ID : 224 (0xE0)
Format : MPEG Video
Format version : Version 2
Format profile : Main@Main
Format settings, BVOP : Yes
Format settings, Matrix : Custom
Format settings, GOP : Variable
Format settings, picture structure : Frame
Duration : 22mn 19s
Bit rate mode : Variable
Bit rate : 6 089 Kbps
Maximum bit rate : 9 800 Kbps
Width : 720 pixels
Height : 480 pixels
Display aspect ratio : 16:9
Frame rate : 29.970 fps
Standard : NTSC
Color space : YUV
Chroma subsampling : 4:2:0
Bit depth : 8 bits
Scan type : Interlaced
Scan order : Top Field First
Compression mode : Lossy
Bits/(Pixel*Frame) : 0.588
Time code of first frame : 01:00:17:00
Time code source : Group of pictures header
GOP, Open/Closed : Open
GOP, Open/Closed of first frame : Closed
Stream size : 972 MiB (95%)

Audio
ID : 189 (0xBD)-128 (0x80)
Format : AC-3
Format/Info : Audio Coding 3
Mode extension : CM (complete main)
Format settings, Endianness : Big
Muxing mode : DVD-Video
Duration : 22mn 19s
Bit rate mode : Constant
Bit rate : 192 Kbps
Channel(s) : 2 channels
Channel positions : Front: L R
Sampling rate : 48.0 KHz
Bit depth : 16 bits
Compression mode : Lossy
Stream size : 30.7 MiB (3%)

Menu
Трекер:  [ 27-Фев-2016 02:00 ]

Размер .torrent файла 17 KB


Размер: 1.65 GB
Хэш (hash) релиза: c8e412b1bc50a4373624e7d32ac3a314f8d898e3
Подписка на обновления:

Еще никто не оставлял запись к записи скачать торрент Kan`in Tokkyuu: Michi Shio Совращение в экспрессе: отрыв по-полной . Будь первым!

!Обратная связь
//main.js show_panel