Статистика раздачи
Размер:  1.96 GB   |    Зарегистрирован:  1 год 2 месяца   |    .torrent скачан:  185 раз   |   

Пиры будут получены при скачивании

 

Скачать порно The Collection Gamerips через торрент бесплатно :: UnionPron.org

 
 
Автор Сообщение

Sakura

avatar Sakura


[url=...1873277] [/url][url=...1863338] [/url]
Год производства: 2012-2015 г.
Жанр Hand Job , Younger Sister, Breast Sex, Bondage,
Цензура : Есть во всех файлах =)
Язык : Японский
Описание : Сборник Gamerips разработчика Stargate
Разрешение видео :640- 720p

Разработчик/Издательство : Stargate
Описание:
Сборник Gamerips от разработчика Stargate

Содержание раздачи:
*Trance Doll 2
*Alice
*Trance Doll
*Nokia
*Doll Box 2
*Doll Box
*BBG3 custom
*Sister
*Balance Ball Girl

Trance Doll 2 /
Год производства: 2015 г.
Жанр: Foot Job, Twin Tail,Bukkake
Продолжительность: 11:51
Цензура: Есть во всех файлах

Студия: Stargate

Описание:
Choose an outfit and make your vampire girl dance.
And enjoy the fetishistic sex.

Качество видео: GameRip
Формат видео: WMV
Видео: Windows Media Video 9 1280x800 30fps 4000kbps
Аудио 1: WMA 2 44100Hz stereo 96kbps
Video
ID : 1
Format : VC-1
Format profile : MP@HL
Codec ID : WMV3
Codec ID/Info : Windows Media Video 9
Codec ID/Hint : WMV3
Description of the codec : Windows Media Video 9 - Professional
Duration : 11mn 51s
Bit rate mode : Constant
Bit rate : 4 000 Kbps
Width : 1 280 pixels
Height : 800 pixels
Display aspect ratio : 16:10
Frame rate : 30.000 fps
Color space : YUV
Chroma subsampling : 4:2:0
Bit depth : 8 bits
Scan type : Progressive
Compression mode : Lossy
Bits/(Pixel*Frame) : 0.130
Stream size : 339 MiB (97%)
Language : Latvian

Audio
ID : 2
Format : WMA
Format version : Version 2
Codec ID : 161
Codec ID/Info : Windows Media Audio
Description of the codec : Windows Media Audio 9.2 - 96 kbps, 44 kHz, stereo 1-pass CBR
Duration : 11mn 51s
Bit rate mode : Constant
Bit rate : 96.0 Kbps
Channel(s) : 2 channels
Sampling rate : 44.1 KHz
Bit depth : 16 bits
Stream size : 8.14 MiB (2%)

Alice / 妹だけどお兄ぃのち○ちんシコシコしても問題ないよね?!

Год производства: 2015 г.
Жанр: Younger Sister, Hand Job, Foot Job
Продолжительность: 06:05
Цензура: Есть во всех файлах

Язык: Японский
Озвучка: Оригинальная
Студия: Stargate

Описание: Oozy coozy loving little sister Alisa''s love for big brother just doesn''t stop!

Доп. информация: спасибо Adolat

Качество видео: GameRip
Разрешение видео: 720p
Формат видео: WMV
Видео: Windows Media Video 9 1272x796 30fps 5714kbps
Аудио 1: WMA 2 44100Hz stereo 320kbps
Video
ID : 1
Format : VC-1
Format profile : MP@HL
Codec ID : WMV3
Codec ID/Info : Windows Media Video 9
Codec ID/Hint : WMV3
Description of the codec : Windows Media Video 9
Duration : 6mn 6s
Bit rate mode : Variable
Bit rate : 5 714 Kbps
Width : 1 272 pixels
Height : 796 pixels
Display aspect ratio : 1.598
Frame rate : 30.000 fps
Bit depth : 8 bits
Scan type : Progressive
Compression mode : Lossy
Bits/(Pixel*Frame) : 0.188
Stream size : 249 MiB (94%)
Language : Latvian

Audio
ID : 2
Format : WMA
Format version : Version 2
Codec ID : 161
Codec ID/Info : Windows Media Audio
Description of the codec : Windows Media Audio 9.2 - 320 kbps, 44 kHz, stereo (A/V) 1-pass CBR
Duration : 6mn 5s
Bit rate mode : Constant
Bit rate : 320 Kbps
Channel(s) : 2 channels
Sampling rate : 44.1 KHz
Bit depth : 16 bits
Stream size : 14.0 MiB (5%)

Trance Doll /

Год производства: 2015 г.
Жанр: Bondage, Short hair, Brunet Hair
Продолжительность: 6:35
Цензура: Есть во всех файлах

Язык: Японский
Озвучка: Оригинальная
Студия: Stargate

Описание: Choose an outfit and make your doll dance.
Please note that there is no actual sex scene.

Качество видео: GameRip
Разрешение видео: 720p
Формат видео: WMV
Видео: Windows Media Video 9 1272x792 30fps 7567kbps
Аудио 1: WMA 2 44100Hz stereo 320kbps
Video
ID : 1
Format : VC-1
Format profile : MP@HL
Codec ID : WMV3
Codec ID/Info : Windows Media Video 9
Codec ID/Hint : WMV3
Description of the codec : Windows Media Video 9
Duration : 6mn 35s
Bit rate mode : Variable
Bit rate : 7 568 Kbps
Width : 1 272 pixels
Height : 792 pixels
Display aspect ratio : 1.606
Frame rate : 30.000 fps
Bit depth : 8 bits
Scan type : Progressive
Compression mode : Lossy
Bits/(Pixel*Frame) : 0.250
Stream size : 357 MiB (95%)
Language : Latvian

Audio
ID : 2
Format : WMA
Format version : Version 2
Codec ID : 161
Codec ID/Info : Windows Media Audio
Description of the codec : Windows Media Audio 9.2 - 320 kbps, 44 kHz, stereo (A/V) 1-pass CBR
Duration : 6mn 35s
Bit rate mode : Constant
Bit rate : 320 Kbps
Channel(s) : 2 channels
Sampling rate : 44.1 KHz
Bit depth : 16 bits
Stream size : 15.1 MiB (4%)

Nokia / 妹にシコシコされて気持ちよくなるなんて変態だろ!馬鹿兄貴!

Год производства: 2014 г.
Жанр: Younger Sister, Brown Hair, Bukkake
Продолжительность: 5:21
Цензура: Есть во всех файлах

Язык: Японский
Озвучка: Оригинальная
Студия:stargate
DLSITE
Описание: A slightly sadistic and tsundere sister Nokia squeezes her brother to the limit!

Качество видео: GameRip
Формат видео: WMV
Видео кодек: Windows Media
Аудио кодек: WMA
Видео: Windows Media Video 9 1060x660 30fps 3965kbps
Аудио 1: WMA 2 44100Hz stereo 320kbps
Video
ID : 1
Format : VC-1
Format profile : MP@HL
Codec ID : WMV3
Codec ID/Info : Windows Media Video 9
Codec ID/Hint : WMV3
Description of the codec : Windows Media Video 9
Duration : 5mn 21s
Bit rate mode : Variable
Bit rate : 3 965 Kbps
Width : 1 060 pixels
Height : 660 pixels
Display aspect ratio : 1.606
Frame rate : 30.000 fps
Bit depth : 8 bits
Scan type : Progressive
Compression mode : Lossy
Bits/(Pixel*Frame) : 0.189
Stream size : 152 MiB (92%)
Language : Latvian

Audio
ID : 2
Format : WMA
Format version : Version 2
Codec ID : 161
Codec ID/Info : Windows Media Audio
Description of the codec : Windows Media Audio 9.2 - 320 kbps, 44 kHz, stereo (A/V) 1-pass CBR
Duration : 5mn 21s
Bit rate mode : Constant
Bit rate : 320 Kbps
Channel(s) : 2 channels
Sampling rate : 44.1 KHz
Bit depth : 16 bits
Stream size : 12.3 MiB (7%)

Doll Box 2 /

Год производства: 2013 г.
Жанр: Humanoid Robot Bukkake Twin Tail Big Breasts
Продолжительность: 4:37
Цензура: Есть во всех файлах

Язык: Японский
Озвучка: Оригинальная
Студия: stargate
DLSITE

Описание: Click Alice the android to interact.

Качество видео: GameRip
Разрешение видео: 720p
Формат видео: WMV
Видео кодек: Windows Media
Аудио кодек: WMA
Видео: Windows Media Video 9 1280x720 30fps 4634kbps
Аудио 1: WMA 2 44100Hz stereo 320kbps
Video
ID : 1
Format : VC-1
Format profile : MP@HL
Codec ID : WMV3
Codec ID/Info : Windows Media Video 9
Codec ID/Hint : WMV3
Description of the codec : Windows Media Video 9
Duration : 4mn 37s
Bit rate mode : Variable
Bit rate : 4 634 Kbps
Width : 1 280 pixels
Height : 720 pixels
Display aspect ratio : 16:9
Frame rate : 30.000 fps
Bit depth : 8 bits
Scan type : Progressive
Compression mode : Lossy
Bits/(Pixel*Frame) : 0.168
Stream size : 153 MiB (93%)
Language : Latvian

Audio
ID : 2
Format : WMA
Format version : Version 2
Codec ID : 161
Codec ID/Info : Windows Media Audio
Description of the codec : Windows Media Audio 9.2 - 320 kbps, 44 kHz, stereo (A/V) 1-pass CBR
Duration : 4mn 37s
Bit rate mode : Constant
Bit rate : 320 Kbps
Channel(s) : 2 channels
Sampling rate : 44.1 KHz
Bit depth : 16 bits
Stream size : 10.6 MiB (6%)

Doll Box /

Год производства: 2013 г.
Жанр: Lots of White Cream/Juices Touching Collar/Chain/Hamper Girl Slave Twin Tail
Продолжительность: 2:02
Цензура: Есть во всех файлах

Язык: Японский
Озвучка: Оригинальная
Студия:stargate
DLSITE

Описание: A lovely girl shackled in a satin box.
Click her to interact.

Качество видео: GameRip
Разрешение видео: 720p
Формат видео: WMV
Видео кодек: Windows Media
Аудио кодек: WMA
Видео: Windows Media Video 9 1280x720 30fps 3000kbps
Аудио 1: WMA 2 44100Hz stereo 96kbps
Video
ID : 1
Format : VC-1
Format profile : MP@HL
Codec ID : WMV3
Codec ID/Info : Windows Media Video 9
Codec ID/Hint : WMV3
Description of the codec : Windows Media Video 9 - Professional
Duration : 2mn 2s
Bit rate mode : Constant
Bit rate : 3 000 Kbps
Width : 1 280 pixels
Height : 720 pixels
Display aspect ratio : 16:9
Frame rate : 30.000 fps
Bit depth : 8 bits
Scan type : Progressive
Compression mode : Lossy
Bits/(Pixel*Frame) : 0.109
Stream size : 43.8 MiB
Language : Latvian

Audio
ID : 2
Format : WMA
Format version : Version 2
Codec ID : 161
Codec ID/Info : Windows Media Audio
Description of the codec : Windows Media Audio 9.2 - 96 kbps, 44 kHz, stereo 1-pass CBR
Duration : 2mn 2s
Bit rate mode : Constant
Bit rate : 96.0 Kbps
Channel(s) : 2 channels
Sampling rate : 44.1 KHz
Bit depth : 16 bits
Stream size : 1.40 MiB (3%)

BBG3 custom / BBG3カスタム / BBG3 пользовательских
Год производства: 2013 г.
RELESE 01.04.2013[/
Жанр: Chirarizumu boobs juice / liquid mass glasses shortcut twin tail
Серии: 1
Продолжительность: 17:01
Цензура: Есть во всех файлах

Язык: Японский
Озвучка: Оригинальная
Студия: StarGate

Описание:

3D simulation game delusion "BBG3 custom" this software is content maniac to balance ball to customize the girl.
The contents for people to be intrigued by the Chirarizumu like erotic wear and IV than the radical content, such as AV.
Three hair style, two colors of skin, two bust size, the custom character mode it is possible to combine the 36 street from three costume.
It is possible to balance the ball on the character in combination with their own preferences in the play mode.
Basic content is a very stoic, but was equipped with a button to put perspective button Bukkake.

DLSITE

Качество видео: GameRip
Формат видео: WMV
Видео кодек: Windows Media
Аудио кодек: WMA
Video: 2,395 Kbps, 800*600(4:3), at 30.000 Fps, Vc-1 (WM3)
Audio: 440Kbs, 44,1 Khz, 24 bit, 2 channels, WMA
Format : Windows Media
File size : 364 MiB
Duration : 17mn 50s
Overall bit rate mode : Variable
Overall bit rate : 2 853 Kbps
Maximum Overall bit rate : 3 781 Kbps
Encoded date : UTC 2013-05-17 20:57:39.322

Video
ID : 1
Format : VC-1
Format profile : MP@HL
Codec ID : WMV3
Codec ID/Info : Windows Media Video 9
Codec ID/Hint : WMV3
Description of the codec : Windows Media Video 9
Duration : 17mn 50s
Bit rate mode : Variable
Bit rate : 2 395 Kbps
Width : 800 pixels
Height : 600 pixels
Display aspect ratio : 4:3
Frame rate : 30.000 fps
Bit depth : 8 bits
Scan type : Progressive
Compression mode : Lossy
Bits/(Pixel*Frame) : 0.166
Stream size : 306 MiB (84%)
Language : Latvian

Audio
ID : 2
Format : WMA
Format profile : Pro
Codec ID : 162
Codec ID/Info : Windows Media Audio
Description of the codec : Windows Media Audio 10 Professional - 440 kbps, 44 kHz, 2 channel 24 bit (A/V) 1-pass CBR
Duration : 17mn 50s
Bit rate mode : Constant
Bit rate : 440 Kbps
Channel(s) : 2 channels
Sampling rate : 44.1 KHz
Bit depth : 24 bits
Stream size : 56.2 MiB (15%)

Sister / 妹のエロ過ぎる誘惑 / Сестра

Год производства: 2013 г.
RELESE 02.02.2013[/
Жанр: Breasts Dirty Talk Younger Sister Underwear Incest Twin Tail
Серии: 1
Продолжительность: 11:55
Цензура: Есть во всех файлах

Язык: Японский
Озвучка: Оригинальная
Студия: StarGate

Описание: Check out this lollipop teen barbie!
Based on the character from 3D digital novel "Imouto no Ero-sugiru Yuuwaku" (Little Sister''s Too Lewd Temptation)

STORY
Mom and dad are on vacation. It''s just big brother and sexy sassy imouto Yui. And Yui is a naughty girl.
You can''t withstand her perky pouty allure. She gives you a handie and graduates to full throat-hilt oral sex.
Next thing she''s riding you to a cummy internal orgasm, f*cks you between her big tits until you cum on
her face, then you make love face to face missionary style. It''s three days of parental-free incest heaven.

Voiced (CV) by Yuu Shimotsuki

DLSITE

Качество видео: GameRip
Формат видео: WMV
Видео кодек: Windows Media
Аудио кодек: WMA
Video: 2,500 Kbps, 800*600(4:3), at 29.000 Fps, Vc-1 (WM3)
Audio: 192Kbs, 44,1 Khz, 16 bit, 2 channels, WMA
Video
ID : 2
Format : VC-1
Format profile : MP@HL
Codec ID : WMV3
Codec ID/Info : Windows Media Video 9
Codec ID/Hint : WMV3
Description of the codec : Windows Media Video 9 - Professional
Duration : 10mn 14s
Bit rate mode : Constant
Bit rate : 2 500 Kbps
Width : 800 pixels
Height : 600 pixels
Display aspect ratio : 4:3
Frame rate : 29.000 fps
Bit depth : 8 bits
Scan type : Progressive
Compression mode : Lossy
Bits/(Pixel*Frame) : 0.180
Stream size : 183 MiB (92%)
Language : Russian

Audio
ID : 1
Format : WMA
Format version : Version 2
Codec ID : 161
Codec ID/Info : Windows Media Audio
Description of the codec : Windows Media Audio 9.2 - 192 kbps, 44 kHz, stereo (A/V) 1-pass CBR
Duration : 10mn 14s
Bit rate mode : Constant
Bit rate : 192 Kbps
Channel(s) : 2 channels
Sampling rate : 44.1 KHz
Bit depth : 16 bits
Stream size : 14.1 MiB (7%)

Balance Ball Girl / バランスボールガール / Девушка Balance Ball
Год производства: 2012 г.
RELESE 08.12.2012
Жанр: Chirarism (Peeping) Fetish Breasts Robot Twin Tail Big Breasts
Серии: 1
Продолжительность: 3:39
Цензура: Есть во всех файлах

Язык: Японский
Озвучка: Оригинальная
Студия: StarGate
Описание: Nothing but cutie android bouncing on a balance ball! Press the button to glisten her with fluids! (for some reason!)
She won''t get off that ball no matter what.

3D movie with various options like zoom, outfits, fluids.

DLSITE

Качество видео: GameRip
Формат видео: WMV
Видео кодек: Windows Media
Аудио кодек: WMA
Video: 1,648 Kbps, 856*640(4:3), at 10.000 Fps, Vc-1 (WM3)
Audio: 1411Kbps, 44,1 Khz, 16 bit, 2 channels, WMA
Video
ID : 0
Format : VC-1
Codec ID : WMV3
Codec ID/Info : Windows Media Video 9
Codec ID/Hint : WMV3
Duration : 3mn 39s
Bit rate : 1 648 Kbps
Width : 856 pixels
Height : 640 pixels
Display aspect ratio : 4:3
Frame rate : 10.000 fps
Bit depth : 8 bits
Compression mode : Lossy
Bits/(Pixel*Frame) : 0.301
Stream size : 43.2 MiB (54%)

Audio
ID : 1
Format : PCM
Format settings, Endianness : Little
Format settings, Sign : Signed
Codec ID : 1
Duration : 3mn 39s
Bit rate mode : Constant
Bit rate : 1 411.2 Kbps
Channel(s) : 2 channels
Sampling rate : 44.1 KHz
Bit depth : 16 bits
Stream size : 37.0 MiB (46%)
Interleave, duration : 371 ms (3.71 video frames)
Приятного просмотра! Пожалуйста, поддержите раздачу!
Спасибо за Ваши будующие комментарии!
Трекер:  [ 25-Фев-2016 02:30 ]

Размер .torrent файла 20 KB


Размер: 1.96 GB
Хэш (hash) релиза: 50dcd71f465e03f90f19720b74e5dff77e82b381
Подписка на обновления:

Торренты, похожие на The Collection скачать торрент

Форум Название Автор Размер S L Добавлен
Классические порно фильмы / Classic ·· Big Tit Superstars of the 80's: Lotta Topp Collection / Big Tit Superstars of the 80's: Lotta Topp Collection (Alpha Blue Archives) [2006 г., Big Tits Mature Classic 2 Hour Comp 80's Gold, VHSRip] Sakura 910928320869 MB 0 0 1417275023

19:30

29-Ноя-14

Сайтрипы 2014 / SiteRip's 2014 ·· Miela (The MetArt Collection Songeire) [MichaelNinn.com] Miela - The MetArt Collection Songeire [2014, Solo] [2014 г., Solo, 1080p] Sakura 274013709261 MB 0 0 1403872320

16:32

27-Июн-14

Японские фильмы / Japan ·· A Kyousei fellatio after the mischief. To the mouth of 12 small Girls. Collection of heavy cameos 2 [MMT-007] (Minimum) [cen] [2013 г., All Sex, Small Growth Fetish, Blowjob, Compilation] Sakura 34201114483.19 GB 0 0 1408530624

14:30

20-Авг-14

Игры: основной подраздел / Games: main subsection ·· The summer of the Enkou girls collection - father is pakopako ... in a cool love hotel (α-MODEL) [cen] [2014, School,Stripteas,Straight,Oral,Footjob,Big tits,BDSM] [jap] Sakura 453526905433 MB 0 0 1400158902

17:01

15-Май-14

Женское доминирование и страпон / Femdom & Strapon ·· Jazzmon Platinum Series 57 - The Best Of The Best Strap On Collections / Платиновая серия Джазмон 57: Лучшее из лучшего страпон-коллекций (Jazzmon Radford, Jazzmon Radford Productions) [2006 г., FemDom, Strapon, Muscular women fetish, DVDRip] Sakura 163478476156 MB 0 0 1390058616

19:23

18-Янв-14

Транссексуалы / Transsexual ·· Nina Lawless Under the Table: Collect Your Reward (13 Sep) [2015 г., Tranny, Shemale, Solo, Masturbation, Cum, 720p, SiteRip] Sakura 352970568337 MB 0 0 1442235810

17:03

14-Сен-15

Японские фильмы (DVD и HD) / Japan (DVD & HD) ·· KIRARI 108 The Best Collection 3hrs 16 Girls: Yui Hatano, Miku Ohashi, Rie Tachikawa, and more [MKBD-S108] (MUGEN Entertainment) [uncen] [2015, Japan, Nice Face, Nice Tits, Creampie, Facial, Doggy, Straight, All Sex, Compilation, BDRip] [1080p] Sakura 82093083237.65 GB 0 0 1441834268

01:31

10-Сен-15

Японские фильмы / Japan ·· KIRARI 108 The Best Collection 3hrs 16Girls [MKD-S108] (MUGEN Entertainment) [uncen] [2015 г., All sex, DVDRip] Sakura 17518404271.63 GB 0 0 1441711871

15:31

8-Сен-15

БДСМ / BDSM ·· Jul 24, 2015 - Mr. Pete, Juliette March, Cadence Luxx and Adley Rose / The Girlfriend Collection / Коллекция девушек / 38179 [2015 г., BDSM, Bondage, Submission, Domination, Humiliation, All sex, Anal, 360p, SiteRip] Sakura 382020884364 MB 0 0 1437843839

21:03

25-Июл-15

БДСМ / BDSM ·· Jul 24, 2015 - Mr. Pete, Juliette March, Cadence Luxx and Adley Rose / The Girlfriend Collection / Коллекция девушек / 38179 [2015 г., BDSM, Bondage, Submission, Domination, Humiliation, All sex, Anal, 540p, SiteRip] Sakura 703287106671 MB 0 0 1437843834

21:03

25-Июл-15

БДСМ / BDSM ·· Jul 24, 2015 - Mr. Pete, Juliette March, Cadence Luxx and Adley Rose / The Girlfriend Collection / Коллекция девушек / 38179 [2015 г., BDSM, Bondage, Submission, Domination, Humiliation, All sex, Anal, 720p, HDRip] Sakura 23422025332.18 GB 0 0 1437775392

02:03

25-Июл-15

Игры: основной подраздел / Games: main subsection ·· The Pusooy's Games Collection in RUSSIAN / Сборник игр от Pusooy.net на РУССКОМ ЯЗЫКЕ (pusooy.net) [uncen] [2010-2014, Flash, ADV, Anal, Oral, Group, Lesbians, Blow Job, Masturbate] [rus] Sakura 237017477226 MB 0 0 1429119185

21:33

15-Апр-15

Подборки сетов / Picture Sets Packs ·· 2015-04-06 Bexie - The Urban Collection [Natural Tits, Softcore, Posing, Glamour] [1331х2000, 50 фото] Sakura 7315579970 MB 0 0 1428768167

20:02

11-Апр-15

Классические порно фильмы / Classic ·· The pleasure party (Lingerie Party) / Вечеринка наслаждений [ger] (John Shubert, Gourmet Video Collection) [1985 г., AllSex, VHS2DVDRip] Traci Lords, Barbie Dahl, Beverly Bliss, Erica Boyer Sakura 734523854700 MB 0 0 1428440418

01:00

8-Апр-15

Транссексуалы / Transsexual ·· LUXURY Asian Shemale Beauty the St.OPERA Collections / Самые Роскошные Азиатские Трансики Лучший Трах в Попу[OPBD-046;074;OPSD-016;OPUD-076;077;091;097;111;114;120;151] (OPERA) [cen] [2009-2013 г. Asian,Shemale,Anal,Hardcore,CrossDres,All Sex,DVDRip] Sakura 2273175133621.17 GB 0 0 1422309750

02:02

27-Янв-15

Порно мультфильмы / Cartoons ·· SFM Stuff Collection / Полная версия [2014 г., Big boobs, futa, Anal, Group sex, Sex, Anime, BlowJob, Lesbians, Animation, 3DCG, Mass Effect, Bioshock, Elsa the ice queen, World of warcraft, L4D, Lara Croft, Elizabeth, SiteRip] Sakura 71463018506.66 GB 0 0 1417021219

21:00

26-Ноя-14

Хентай в высоком качестве (DVD и HD) / Hentai DVD & HD ·· Madonna: Kanjuku Body Collection The Animation / Мадонна - Коллекция спелых тел (Kotobuki Ranko, Hills) (ep. 1) [cen] [2014 г., Big tits, Oral sex, Titsjob, Mature, DVD5] [jap] Sakura 12429845931.16 GB 0 0 1411227211

19:33

20-Сен-14

Хентай: основной подраздел / Hentai: main subsection ·· Madonna: Kanjuku Body Collection The Animation / Мадонна - Коллекция спелых тел (Kotobuki Ranko, hills) (ep. 1) [cen] [2014 г. Big tits, Oral sex, Paizuri, Group sex, DVDRip] [jap / eng / rus] Sakura 252789385241 MB 0 0 1409331785

21:03

29-Авг-14

Хентай: основной подраздел / Hentai: main subsection ·· Madonna: Kanjuku Body Collection The Animation / Мадонна - Коллекция спелых тел (Kotobuki Ranko, hills) (ep. 1) [cen] [2014 г. Big tits, Oral sex, Paizuri, Group sex, DVDRip] [jap / eng] Sakura 252749708241 MB 0 0 1408548762

19:32

20-Авг-14

Хентай: основной подраздел / Hentai: main subsection ·· Madonna: Kanjuku Body Collection The Animation / Мадонна - Коллекция спелых тел (Kotobuki Ranko, hills) (ep. 1) [cen] [2014 г., Big tits, Oral sex, Paizuri, Group sex, DVDRip] [jap] Sakura 252716421241 MB 0 0 1407006135

23:02

2-Авг-14

Еще никто не оставлял запись к записи скачать торрент The Collection . Будь первым!

!Обратная связь
//main.js show_panel