Статистика раздачи
Размер:  276 MB   |    Зарегистрирован:  1 год 9 месяцев   |    .torrent скачан:  20 раз   |   

Пиры будут получены при скачивании

 

Скачать порно A risu + / Алиса + через торрент бесплатно :: UnionPron.org

 
 
Автор Сообщение

Sakura

avatar Sakura


A risu + / アダルトアニメアート大全9 ありす+ / Алиса +

Год производства: 2007 г.
Жанр: Straight, Blowjob, Doujin, School, Students, Various
Серии: ep. 1 of 1
Продолжительность: 29mn 44s
Цензура: Есть во всех файлах

Язык: Японский
Озвучка: Оригинальная
Режиссер: Chris Takei
Описание: На той неделе посмотрю и напишу.

Качество видео: DVDrip
Разрешение видео: 480p
Формат видео: AVI
Видео: 640-480, 4-3, 23.976 fps, DivX 5, 1 160 Kbps
Аудио: jpn, MP3, 48.0 KHz, Stereo, 128 Kbps

getchu.com
General
Complete name : A_risu_+_[4C61E0A8].avi
Format : AVI
Format/Info : Audio Video Interleave
File size : 275 MiB
Duration : 29mn 44s
Overall bit rate : 1 293 Kbps
Writing library : This file was made by AviUtl 0.97f.

Video
ID : 0
Format : MPEG-4 Visual
Format settings, BVOP : Yes
Format settings, QPel : No
Format settings, GMC : No warppoints
Format settings, Matrix : Default (H.263)
Codec ID : DX50
Codec ID/Hint : DivX 5
Duration : 29mn 44s
Bit rate : 1 160 Kbps
Width : 640 pixels
Height : 480 pixels
Display aspect ratio : 4:3
Frame rate : 23.976 fps
Color space : YUV
Chroma subsampling : 4:2:0
Bit depth : 8 bits
Scan type : Progressive
Compression mode : Lossy
Bits/(Pixel*Frame) : 0.158
Stream size : 247 MiB (90%)
Writing library : DivX 5.0.2 (UTC 2002-05-16)

Audio
ID : 1
Format : MPEG Audio
Format version : Version 1
Format profile : Layer 3
Mode : Joint stereo
Mode extension : MS Stereo
Codec ID : 55
Codec ID/Hint : MP3
Duration : 29mn 44s
Bit rate mode : Constant
Bit rate : 128 Kbps
Channel(s) : 2 channels
Sampling rate : 48.0 KHz
Compression mode : Lossy
Stream size : 27.2 MiB (10%)
Alignment : Split accross interleaves
Interleave, duration : 467 ms (11.20 video frames)
Interleave, preload duration : 421 ms
Трекер:  [ 21-Фев-2016 02:00 ]

Размер .torrent файла 11 KB


Размер: 276 MB
Хэш (hash) релиза: bd77b477e541a2f1212c72e00bb3c73e659c13af
Подписка на обновления:

Еще никто не оставлял запись к записи скачать торрент A risu + Алиса + . Будь первым!

!Обратная связь
//main.js show_panel