Статистика раздачи
Размер:  2 GB   |    Зарегистрирован:  1 год 6 месяцев   |    .torrent скачан:  18 раз   |   

Пиры будут получены при скачивании

 

Скачать порно Carmen / Кармен через торрент бесплатно :: UnionPron.org

 
 
Автор Сообщение

Sakura

avatar Sakura


Carmen / Кармен

Год производства: 1998 г.
Страна: Италия
Жанр: Feature
Продолжительность: 02:56:34
Язык: Английский

Режиссер: Mario Bianchi as Nicholas Moore
Студия: F.M. Video

В ролях: Zenza Raggi, Mike Foster, John Walton, Francesco Malcom, Anita Dark, La Venere Bianca, Francesca Sforza, Giovanni Tadini, Christina Micheli, Annalise Oliero, Susanne Love, Deborah Drake, Elena Covach, Stephan Smith

Описание: Carmen is a beautiful, sexy woman who is horny and in a time when a woman''s sexuality is something to be hidden, she is pushing the envelope with her desires. Set in a colonial period and riveted with passion and some of the most sensual sex to be found in a feature film.

Доп. информация:
http://www.iafd.com/title.rme/title=Carmen/year=1998/carmen.htm
Для сравнения с раздачей от pve ( [url=...1222003]ссылка[/url]) залил семплы:
http://sendfile.su/1202135
В исходнике неправильно указаны характеристики аудио. Звук копировал без изменений.

Исходник - [url=...1221284]2xDVD5[/url] (качественная оцифровка VHS)
Спасибо - sasha2k

Качество видео: DVDRip-AVC
Формат видео: MKV
Видео: х264 | 688x528 | 25,000 кадров/сек | 2200 Кбит/сек | 0.242
Аудио: MP2 | 48,0 КГц | моно | 192 Кбит/сек
Формат : Matroska
Версия формата : Version 2
Размер файла : 3,01 Гбайт
Продолжительность : 2 ч. 56 м.
Общий поток : 2441 Кбит/сек
Название фильма : Carmen (1998) - релиз для PORNOLAB.NET
Дата кодирования : UTC 2016-02-07 08:46:49
Программа кодирования : mkvmerge v7.9.0 (''Birds'') 32bit
Библиотека кодирования : libebml v1.3.1 + libmatroska v1.4.2
Обложка : Yes
Attachments : cover.jpg

Видео
Идентификатор : 1
Формат : AVC
Формат/Информация : Advanced Video Codec
Профиль формата : High@L3.1
Параметр CABAC формата : Да
Параметр ReFrames формата : 8 кадров
Идентификатор кодека : V_MPEG4/ISO/AVC
Продолжительность : 2 ч. 56 м.
Битрейт : 2200 Кбит/сек
Ширина : 688 пикселей
Высота : 528 пикселей
Соотношение сторон : 4:3
Режим частоты кадров : Постоянный
Частота кадров : 25,000 кадров/сек
Цветовое пространство : YUV
Субдискретизация насыщенности : 4:2:0
Битовая глубина : 8 бит
Тип развёртки : Прогрессивная
Бит/(Пиксели*Кадры) : 0.242
Размер потока : 2,71 Гбайт (90%)
Библиотека кодирования : x264 core 148 r2665 a01e339
Настройки программы : cabac=1 / ref=8 / deblock=1:0:0 / analyse=0x3:0x113 / me=umh / subme=9 / psy=1 / psy_rd=0.85:0.05 / mixed_ref=1 / me_range=16 / chroma_me=1 / trellis=2 / 8x8dct=1 / cqm=0 / deadzone=21,11 / fast_pskip=1 / chroma_qp_offset=-3 / threads=4 / lookahead_threads=1 / sliced_threads=0 / nr=0 / decimate=0 / interlaced=0 / bluray_compat=0 / constrained_intra=0 / bframes=5 / b_pyramid=2 / b_adapt=2 / b_bias=0 / direct=1 / weightb=1 / open_gop=0 / weightp=2 / keyint=250 / keyint_min=25 / scenecut=40 / intra_refresh=0 / rc_lookahead=60 / rc=crf / mbtree=1 / crf=18.0 / qcomp=0.70 / qpmin=0 / qpmax=69 / qpstep=4 / ip_ratio=1.40 / aq=1:0.80
Default : Да
Forced : Нет

Аудио
Идентификатор : 2
Формат : MPEG Audio
Версия формата : Version 1
Профиль формата : Layer 2
Идентификатор кодека : A_MPEG/L2
Идентификатор кодека/Подсказка : MP2
Продолжительность : 2 ч. 56 м.
Вид битрейта : Постоянный
Битрейт : 192 Кбит/сек
Каналы : 1 канал
Частота : 48,0 КГц
Метод сжатия : С потерями
Размер потока : 242 Мбайт (8%)
Default : Да
Forced : Нет

Меню
00:00:01.000 : :Scene 1. La Venere Bianca
00:24:15.000 : :Scene 2. Katalyn Hoffner
00:41:02.000 : :Scene 3. Rita Cardinale
00:59:47.000 : :Scene 4. Deborah Valentine
01:10:42.000 : :Scene 5. La Venere Bianca
01:23:29.000 : :Scene 6. La Venere Bianca
01:47:22.000 : :Scene 7. Anita Dark & La Venere Bianca
01:57:31.000 : :Scene 8. Katalyn Hoffner
02:17:43.000 : :Scene 9. Michaela
02:32:51.000 : :Scene 10. Kristina Varga
02:48:45.000 : :Scene 11. La Venere Bianca
Scene 1. La Venere Bianca, John Walton
Scene 2. Katalyn Hoffner, Francesco Malcom
Scene 3. Rita Cardinale, Mike Foster
Scene 4. Deborah Valentine, Zenza Raggi
Scene 5. La Venere Bianca, Zenza Raggi
Scene 6. La Venere Bianca, Mike Foster
Scene 7. Anita Dark, La Venere Bianca
Scene 8. Katalyn Hoffner, Zenza Raggi
Scene 9. Michaela, Mike Foster
Scene 10. Kristina Varga, Zenza Raggi
Scene 11. La Venere Bianca, Zenza Raggi
[url]...1222003[/url]
[url]...992134[/url]
Трекер:  [ 14-Фев-2016 15:30 ]

Размер .torrent файла 15 KB


Размер: 2 GB
Хэш (hash) релиза: 9caaa42b3a264925f2eb77e538e72e57181bcfe2
Подписка на обновления:

Еще никто не оставлял запись к записи скачать торрент Carmen Кармен . Будь первым!

!Обратная связь
//main.js show_panel