Статистика раздачи
Размер:  2 GB   |    Зарегистрирован:  1 год 7 месяцев   |    .torrent скачан:  253 раза   |   

Пиры будут получены при скачивании

 

Скачать порно The Collection @Oz Gamerips через торрент бесплатно :: UnionPron.org

 
 
Автор Сообщение

Sakura

avatar Sakura


[url=...2114082] [/url][url=...2115901] [/url]
The Collection @Oz Gamerips
Год производства: 2013-2015 г.
Жанр Uniform, Hand Job ,Internal Cumshot, nipple fuck, Rape, Violation
Цензура : Есть во всех файлах =)
Язык : Японский
Описание : Сборник Gamerips разработчика @OZ
Разрешение видео : 480p-720p
Разработчик/Издательство : @oZ
Описание:
Сборник Gamerips от разработчика @OZ

Содержание раздачи:
* A big tits forgery of oku tragedy / 巨乳捏造ブン屋の悲劇 /
* Roribitchi Flandre / ロリビッチ フランドール
* Youmu restraint free fucking / 妖夢 拘束快姦 肛姦輪姦 首締め窒息姦 /
*Gazing at the Summer Stars: A Premarital Journey
*Alice forest pleasure slave doll
*A Certain Mikoto''s Backstreet Railing
*MOON RABBIT COMPLIANT RaPE
*Pretty Twins School Rape
*NAMI RaPE LOGBOOK
*Legend of Holy rape
*Intimate With Haruka - Idol Chikan Train - Express Assault 2nd Car
*KILL KILALA: Thrilling HC Persecution, Stormy Gangbang Hell
*Miglia Jigokuhen destruction and insult thoroughly
*A Certain Molestific Mikoto - Express Assault
*Vivid Ishikki At The Beach
*Anegasaki hot spring

A big tits forgery of oku tragedy / 巨乳捏造ブン屋の悲劇 /

Год производства: 2015 г.
Жанр: Straight, Anal, Blowjob, Big Tits, Group, Double Penetration, Binding
Продолжительность: 11:03
Цензура: Есть во всех файлах

Язык: Японский
Озвучка: Оригинальная
Студия: @Oz

Описание:
кемпирастку в белоm поиймали и питали вибраторами и елекрошокнром (BF4 ever) а нокец етоий баталий заполнили все имеюши дирки у кемперастки.

Качество видео: GameRip
Разрешение видео: 720p
Формат видео: WMV
Видео: Windows Media Video 9 1280x720 30fps 4000kbps
Аудио 1: WMA 2 44100Hz stereo 96kbps
Video
ID : 1
Format : VC-1
Format profile : MP@HL
Codec ID : WMV3
Codec ID/Info : Windows Media Video 9
Codec ID/Hint : WMV3
Description of the codec : Windows Media Video 9 - Professional
Duration : 11mn 4s
Bit rate mode : Constant
Bit rate : 4 000 Kbps
Width : 1 280 pixels
Height : 720 pixels
Display aspect ratio : 16:9
Frame rate : 30.000 fps
Bit depth : 8 bits
Scan type : Progressive
Compression mode : Lossy
Bits/(Pixel*Frame) : 0.145
Stream size : 317 MiB (98%)
Language : Latvian

Audio
ID : 2
Format : WMA
Format version : Version 2
Codec ID : 161
Codec ID/Info : Windows Media Audio
Description of the codec : Windows Media Audio 9.2 - 96 kbps, 44 kHz, stereo 1-pass CBR
Duration : 11mn 3s
Bit rate mode : Constant
Bit rate : 96.0 Kbps
Channel(s) : 2 channels
Sampling rate : 44.1 KHz
Bit depth : 16 bits
Stream size : 7.60 MiB (2%)

Roribitchi Flandre / ロリビッチ フランドール /

Год производства: 2015 г.
Жанр: Insult, fellatio, Harapan , Ryona
Продолжительность: 10:14
Цензура: Есть во всех файлах

Язык: Японский
Студия: @Oz

Описание: Вампир девочка, которая была запечатана разрушительную магию в подземелье, который был заключен в тюрьму

Качество видео: GameRip
Разрешение видео: 720p
Формат видео: WMV
Видео: Windows Media Video 9 1280x720 30fps 3000kbps [Raw Video 0]
Аудио 1: WMA Pro 48000Hz 6ch 384kbps [Raw Audio 1]
Video
ID : 1
Format : VC-1
Format profile : MP@HL
Codec ID : WMV3
Codec ID/Info : Windows Media Video 9
Codec ID/Hint : WMV3
Description of the codec : Windows Media Video 9 - Professional
Duration : 10mn 14s
Bit rate mode : Constant
Bit rate : 3 000 Kbps
Width : 1 280 pixels
Height : 720 pixels
Display aspect ratio : 16:9
Frame rate : 30.000 fps
Bit depth : 8 bits
Scan type : Progressive
Compression mode : Lossy
Bits/(Pixel*Frame) : 0.109
Stream size : 220 MiB (90%)
Language : Latvian

Audio
ID : 2
Format : WMA
Format profile : Pro
Codec ID : 162
Codec ID/Info : Windows Media Audio
Description of the codec : Windows Media Audio 10 Professional - 384 kbps, 48 kHz, 5.1 channel 16 bit 1-pass CBR
Duration : 10mn 14s
Bit rate mode : Constant
Bit rate : 384 Kbps
Channel(s) : 6 channels
Sampling rate : 48.0 KHz
Bit depth : 16 bits
Stream size : 28.1 MiB (12%)

Youmu restraint free fucking / 妖夢 拘束快姦 肛姦輪姦 首締め窒息姦 /

Год производства: 2015 г.
Жанр: Swimsuit , Pissing, pee , Anal, Spanking
Продолжительность: 16:43
Цензура: Есть во всех файлах

Язык: Японский
Озвучка: Оригинальная
Студия: @Oz

Описание: Yu отдихала в саду и пила чаий каторий бил отравленн и потерял сознание,а патом когда Yu ачнулас вокруг уже била целоя толпа мужиков

Качество видео: GameRip
Формат видео: MPEG
Видео: MPEG4 Video (H264) 960x540 15fps 2300kbps [V: h264 high L4.1, yuv420p, 960x540, 2300 kb/s]
Аудио 1: AAC 48000Hz stereo 128kbps [A: aac lc, 48000 Hz, stereo, 128 kb/s]
Video
ID : 1
Format : AVC
Format/Info : Advanced Video Codec
Format profile : High@L4.1
Format settings, CABAC : Yes
Format settings, ReFrames : 4 frames
Codec ID : avc1
Codec ID/Info : Advanced Video Coding
Duration : 16mn 43s
Bit rate : 2 300 Kbps
Maximum bit rate : 4 988 Kbps
Width : 960 pixels
Height : 540 pixels
Display aspect ratio : 16:9
Frame rate mode : Constant
Frame rate : 15.000 fps
Color space : YUV
Chroma subsampling : 4:2:0
Bit depth : 8 bits
Scan type : Progressive
Bits/(Pixel*Frame) : 0.296
Stream size : 275 MiB (95%)
Writing library : x264 core 120 r2164 da19765
Encoding settings : cabac=1 / ref=4 / deblock=1:1:1 / analyse=0x3:0x133 / me=esa / subme=10 / psy=1 / psy_rd=1.00:0.00 / mixed_ref=1 / me_range=32 / chroma_me=1 / trellis=2 / 8x8dct=1 / cqm=0 / deadzone=21,11 / fast_pskip=0 / chroma_qp_offset=-2 / threads=3 / sliced_threads=0 / nr=0 / decimate=1 / interlaced=0 / bluray_compat=0 / constrained_intra=0 / bframes=5 / b_pyramid=2 / b_adapt=2 / b_bias=0 / direct=3 / weightb=1 / open_gop=0 / weightp=2 / keyint=150 / keyint_min=15 / scenecut=40 / intra_refresh=0 / rc_lookahead=150 / rc=2pass / mbtree=1 / bitrate=2300 / ratetol=1.0 / qcomp=0.60 / qpmin=0 / qpmax=69 / qpstep=4 / cplxblur=20.0 / qblur=0.5 / ip_ratio=1.40 / aq=1:1.00
Encoded date : UTC 2015-08-16 17:21:06
Tagged date : UTC 2015-08-16 18:47:26

Audio
ID : 2
Format : AAC
Format/Info : Advanced Audio Codec
Format profile : LC
Codec ID : 40
Duration : 16mn 43s
Bit rate mode : Variable
Bit rate : 128 Kbps
Maximum bit rate : 137 Kbps
Channel(s) : 2 channels
Channel positions : Front: L R
Sampling rate : 48.0 KHz
Compression mode : Lossy
Delay relative to video : 133ms
Stream size : 15.3 MiB (5%)
Encoded date : UTC 2015-08-16 17:15:50
Tagged date : UTC 2015-08-16 18:47:26

Gazing at the Summer Stars: A Premarital Journey / 夏の夜空に天体観測 年上彼氏と婚前旅行

Год производства: 2015 г.
Жанр: Uniform ,Bunny Girl, Hand Job ,Internal Cumshot ,Breast Sex
Продолжительность: 11:31
Цензура: Есть во всех файлах

Язык: Японский
Озвучка: Оригинальная
Студия: @Oz

Описание:
В то время как наши языки , свернувшись вокруг друг друга , я скользнул пальцами
между ее совершенных ног.

Качество видео: GameRip
Разрешение видео: 720p
Формат видео: WMV
Видео: Windows Media Video 9 1280x720 30fps 3000kbps
Аудио 1: WMA 2 44100Hz stereo 96kbps
Video
ID : 1
Format : VC-1
Format profile : MP@HL
Codec ID : WMV3
Codec ID/Info : Windows Media Video 9
Codec ID/Hint : WMV3
Description of the codec : Windows Media Video 9 - Professional
Duration : 11mn 31s
Bit rate mode : Constant
Bit rate : 3 000 Kbps
Width : 1 280 pixels
Height : 720 pixels
Display aspect ratio : 16:9
Frame rate : 30.000 fps
Bit depth : 8 bits
Scan type : Progressive
Compression mode : Lossy
Bits/(Pixel*Frame) : 0.109
Stream size : 247 MiB (98%)
Language : Latvian

Audio
ID : 2
Format : WMA
Format version : Version 2
Codec ID : 161
Codec ID/Info : Windows Media Audio
Description of the codec : Windows Media Audio 9.2 - 96 kbps, 44 kHz, stereo 1-pass CBR
Duration : 11mn 31s
Bit rate mode : Constant
Bit rate : 96.0 Kbps
Channel(s) : 2 channels
Sampling rate : 44.1 KHz
Bit depth : 16 bits
Stream size : 7.92 MiB (3%)

Alice forest pleasure slave doll /アリスの森 快楽奴隷人形

Год производства: 2015 г.
Жанр: nipple fuck, Rape, Violation Blowjob,
Продолжительность: 09:02
Цензура: Есть во всех файлах

Язык: Японский
Озвучка: Оригинальная
Студия: @OZ

Описание: Красиваю Дефку, плохие парни поиймали в лесу и наченали тестироватс девошку на спасобность выдерживать нагрузки на дорочки....

Качество видео: GameRip
Разрешение видео: 720p
Формат видео: WMV
Видео: Windows Media Video 9 1280x720 30fps 3000kbps
Аудио 1: WMA 2 44100Hz stereo 96kbps
Video
ID : 1
Format : VC-1
Format profile : MP@HL
Codec ID : WMV3
Codec ID/Info : Windows Media Video 9
Codec ID/Hint : WMV3
Description of the codec : Windows Media Video 9 - Professional
Duration : 9mn 12s
Bit rate mode : Constant
Bit rate : 3 000 Kbps
Width : 1 280 pixels
Height : 720 pixels
Display aspect ratio : 16:9
Frame rate : 30.000 fps
Bit depth : 8 bits
Scan type : Progressive
Compression mode : Lossy
Bits/(Pixel*Frame) : 0.109
Stream size : 198 MiB (98%)
Language : Latvian

Audio
ID : 2
Format : WMA
Format version : Version 2
Codec ID : 161
Codec ID/Info : Windows Media Audio
Description of the codec : Windows Media Audio 9.2 - 96 kbps, 44 kHz, stereo 1-pass CBR
Duration : 9mn 12s
Bit rate mode : Constant
Bit rate : 96.0 Kbps
Channel(s) : 2 channels
Sampling rate : 44.1 KHz
Bit depth : 16 bits
Stream size : 6.32 MiB (3%)

A Certain Mikoto''s Backstreet Railing /とある美琴の路地裏陵辱

Год производства: 2015 г.
Жанр: Small tits, Internal Cumshot, Violation, Blowjob
Продолжительность: 6;43
Цензура: Есть во всех файлах

Язык: Японский
Озвучка: Оригинальная
Студия: @Oz

Описание:
Студия @Oz Представляет премьера второво сезона 4 эпизод 3DCG Virtual киносериала.
По просбе Фанатиков, студия @Oz дла них зделала Микото возвращается в подробных сцен дефлорация и в неволе стыда.

Качество видео: GameRip
Разрешение видео: 480p
Формат видео: WMV
Видео: Windows Media Video 9 848x480 30fps 6417kbps
Аудио 1: WMA 2 44100Hz stereo 320kbps
Video
ID : 1
Format : VC-1
Format profile : MP@HL
Codec ID : WMV3
Codec ID/Info : Windows Media Video 9
Codec ID/Hint : WMV3
Description of the codec : Windows Media Video 9
Duration : 6mn 43s
Bit rate mode : Variable
Bit rate : 6 417 Kbps
Width : 848 pixels
Height : 480 pixels
Display aspect ratio : 16:9
Frame rate : 30.000 fps
Bit depth : 8 bits
Scan type : Progressive
Compression mode : Lossy
Bits/(Pixel*Frame) : 0.526
Stream size : 309 MiB (95%)
Language : Latvian

Audio
ID : 2
Format : WMA
Format version : Version 2
Codec ID : 161
Codec ID/Info : Windows Media Audio
Description of the codec : Windows Media Audio 9.2 - 320 kbps, 44 kHz, stereo (A/V) 1-pass CBR
Duration : 6mn 43s
Bit rate mode : Constant
Bit rate : 320 Kbps
Channel(s) : 2 channels
Sampling rate : 44.1 KHz
Bit depth : 16 bits
Stream size : 15.4 MiB (5%)


MOON RABBIT COMPLIANT RaPE /美少女戦士 言いなり陵辱

Год производства: 2014 г.
Жанр: Internal Cumshot, Breast Milk, Violation, Molestation Forced
Продолжительность: 10:07
Цензура: Есть во всех файлах

Язык: Японский
Озвучка: Оригинальная
Студия: @Oz

Описание: Студия @Oz Представляет премьера второво сезона третий эпизод 3DCG Virtual киносериала.
По просбе Фанатиков, студия @Oz дла них зделала ишо одну шикарною игру про Sailor Moon.

Качество видео: GameRip
Разрешение видео: 480p
Формат видео: WMV
Видео: Windows Media Video 9 856x480 30fps 3500kbps
Аудио 1: WMA 2 44100Hz stereo 320kbps
Video
ID : 1
Format : VC-1
Format profile : MP@HL
Codec ID : WMV3
Codec ID/Info : Windows Media Video 9
Codec ID/Hint : WMV3
Description of the codec : Windows Media Video 9
Duration : 10mn 8s
Bit rate mode : Variable
Bit rate : 3 500 Kbps
Width : 856 pixels
Height : 480 pixels
Display aspect ratio : 16:9
Frame rate : 30.000 fps
Bit depth : 8 bits
Scan type : Progressive
Compression mode : Lossy
Bits/(Pixel*Frame) : 0.284
Stream size : 254 MiB (90%)
Language : Latvian

Audio
ID : 2
Format : WMA
Format version : Version 2
Codec ID : 161
Codec ID/Info : Windows Media Audio
Description of the codec : Windows Media Audio 9.2 - 320 kbps, 44 kHz, stereo (A/V) 1-pass CBR
Duration : 10mn 7s
Bit rate mode : Constant
Bit rate : 320 Kbps
Channel(s) : 2 channels
Sampling rate : 44.1 KHz
Bit depth : 16 bits
Stream size : 23.2 MiB (8%)

Pretty Twins School Rape /双子姉妹 校内陵辱

Год производства: 2014 г.
Жанр: Swimwear, Gym Shorts, Knee Socks Internal, Cumshot
Продолжительность: 7:32
Цензура: Есть во всех файлах

Язык: Японский
Озвучка: Оригинальная
Студия: @Oz
Описание: Изнасиловать довольно красивих сестрыор-близнецов одновременно, или заставить их заниматься сексом друг с другом ...

Качество видео: GameRip
Разрешение видео: 480p
Формат видео: WMV
Видео кодек: Windows Media
Аудио кодек: WMA
Видео: Windows Media Video 9 852x480 30fps 5820kbps
Аудио 1: WMA 2 44100Hz stereo 320kbps
Video
ID : 1
Format : VC-1
Format profile : MP@HL
Codec ID : WMV3
Codec ID/Info : Windows Media Video 9
Codec ID/Hint : WMV3
Description of the codec : Windows Media Video 9
Duration : 7mn 32s
Bit rate mode : Variable
Bit rate : 5 820 Kbps
Width : 852 pixels
Height : 480 pixels
Display aspect ratio : 16:9
Frame rate : 30.000 fps
Bit depth : 8 bits
Scan type : Progressive
Compression mode : Lossy
Bits/(Pixel*Frame) : 0.474
Stream size : 314 MiB (94%)
Language : Latvian

Audio
ID : 2
Format : WMA
Format version : Version 2
Codec ID : 161
Codec ID/Info : Windows Media Audio
Description of the codec : Windows Media Audio 9.2 - 320 kbps, 44 kHz, stereo (A/V) 1-pass CBR
Duration : 7mn 32s
Bit rate mode : Constant
Bit rate : 320 Kbps
Channel(s) : 2 channels
Sampling rate : 44.1 KHz
Bit depth : 16 bits
Stream size : 17.3 MiB (5%)

NAMI RaPE LOGBOOK /ナミ 後悔日誌

Год производства: 2014 г.
Жанр: Breast Milk, Violation, Blowjob
Продолжительность: 9:38
Цензура: Есть во всех файлах

Язык: Японский
Озвучка: Оригинальная
Студия: @Oz
Описание: Студия @Oz Представляет премьера второво сезона тарова эпизода 3DCG Virtual киносериала.
Рыжеволосою пиратку ONE P*ECE''s поиймали поклонники племени "Kraken". C пленицоий поклонники проводили разние сексуание изпитание и самом канце ритуала визвали демона каторий насилавал пленицу.

Качество видео: GameRip
Разрешение видео: 720p
Формат видео: WMV
Видео кодек: Windows Media
Аудио кодек: WMA
Видео: Windows Media Video 9 1280x720 30fps 3000kbps
Аудио 1: WMA 2 44100Hz stereo 192kbps
ideo
ID : 1
Format : VC-1
Format profile : MP@HL
Codec ID : WMV3
Codec ID/Info : Windows Media Video 9
Codec ID/Hint : WMV3
Description of the codec : Windows Media Video 9 - Professional
Duration : 9mn 38s
Bit rate mode : Constant
Bit rate : 3 000 Kbps
Width : 1 280 pixels
Height : 720 pixels
Display aspect ratio : 16:9
Frame rate : 30.000 fps
Bit depth : 8 bits
Scan type : Progressive
Compression mode : Lossy
Bits/(Pixel*Frame) : 0.109
Stream size : 207 MiB (94%)
Language : Latvian

Audio
ID : 2
Format : WMA
Format version : Version 2
Codec ID : 161
Codec ID/Info : Windows Media Audio
Description of the codec : Windows Media Audio 9.2 - 192 kbps, 44 kHz, stereo 1-pass CBR
Duration : 9mn 38s
Bit rate mode : Constant
Bit rate : 192 Kbps
Channel(s) : 2 channels
Sampling rate : 44.1 KHz
Bit depth : 16 bits
Stream size : 13.3 MiB (6%)

Legend of Holy rape / 聖姦伝説リース

Год производства: 2014 г.
Жанр: tentacles, pregnant women, nipple fuck,Blowjob, Rape
Продолжительность: 17:03
Цензура: Есть во всех файлах

Язык: Японский
Озвучка: Оригинальная
Студия: @oz | DLSite


Описание: Студия @Oz Представляет премьера второво сезона первого эпизода 3DCG Virtual киносериала.

В попытке спасти ее захваченова младшего брата, принцесса Рисса была захвачена гоблинами и орками.

И как десерт самом канце филма принцессу Риссу изнасиловает болшая щупальцa

Качество видео: GameRip
Разрешение видео: 480p
Формат видео: WMV
Видео кодек: Windows Media
Аудио кодек: WMA
Видео: Windows Media Video 9 852x480 30fps 2134kbps
Аудио 1: WMA 2 44100Hz stereo 320kbps
Video
ID : 1
Format : VC-1
Format profile : MP@HL
Codec ID : WMV3
Codec ID/Info : Windows Media Video 9
Codec ID/Hint : WMV3
Description of the codec : Windows Media Video 9
Duration : 17mn 3s
Bit rate mode : Variable
Bit rate : 2 135 Kbps
Width : 852 pixels
Height : 480 pixels
Display aspect ratio : 16:9
Frame rate : 30.000 fps
Bit depth : 8 bits
Scan type : Progressive
Compression mode : Lossy
Bits/(Pixel*Frame) : 0.174
Stream size : 260 MiB (85%)
Language : Latvian

Audio
ID : 2
Format : WMA
Format version : Version 2
Codec ID : 161
Codec ID/Info : Windows Media Audio
Description of the codec : Windows Media Audio 9.2 - 320 kbps, 44 kHz, stereo (A/V) 1-pass CBR
Duration : 17mn 3s
Bit rate mode : Constant
Bit rate : 320 Kbps
Channel(s) : 2 channels
Sampling rate : 44.1 KHz
Bit depth : 16 bits
Stream size : 39.0 MiB (13%)

Intimate With Haruka - Idol Chikan Train - Express Assault 2nd Car / 春香に逢います アイドル痴漢電車 陵辱急行第2車両

Год производства: 2014 г.
Жанр: Gangbang Facial Blowjob Molestation Outdoor Exposure
Продолжительность: 17:27
Цензура: Есть во всех файлах

Язык: Японский
Озвучка: Оригинальная
Студия: @Oz | DLSite
Описание: OZ представляет "финал сезона" виртуального MOVIE первой серии 3DCG ,
для любителей штурма на девушек в поезде. Наслаждайтесь

Качество видео: GameRip
Разрешение видео: 720p
Формат видео: MPEG
Видео кодек: H.264/AVC
Аудио кодек: MP3
Видео: MPEG4 Video (H264) 1280x720 30fps 2966kbps
Аудио 1: MP3 44100Hz stereo 192kbps
ideo
ID : 0
Format : AVC
Format/Info : Advanced Video Codec
Format profile : Main@L5.1
Format settings, CABAC : Yes
Format settings, ReFrames : 1 frame
Codec ID : H264
Duration : 17mn 27s
Bit rate : 2 967 Kbps
Width : 1 280 pixels
Height : 720 pixels
Display aspect ratio : 16:9
Frame rate : 30.000 fps
Color space : YUV
Chroma subsampling : 4:2:0
Bit depth : 8 bits
Scan type : Progressive
Bits/(Pixel*Frame) : 0.107
Stream size : 370 MiB (94%)

Audio
ID : 1
Format : MPEG Audio
Format version : Version 1
Format profile : Layer 3
Codec ID : 55
Codec ID/Hint : MP3
Duration : 17mn 27s
Bit rate mode : Constant
Bit rate : 192 Kbps
Channel(s) : 2 channels
Sampling rate : 44.1 KHz
Compression mode : Lossy
Stream size : 24.0 MiB (6%)
Alignment : Split accross interleaves
Interleave, duration : 33 ms (1.00 video frame)
Interleave, preload duration : 128 ms

KILL KILALA: Thrilling HC Persecution, Stormy Gangbang Hell / レミリア地獄変 急所破壊徹底陵辱

Год производства: 2014 г.
Жанр: Gangbang Violation Blowjob Humiliation Anal
Продолжительность: 9:51
Цензура: Есть во всех файлах

Озвучка: Оригинальная
Субтитры: Встроенные неотключаемые (хардсаб)

Студия: @oz | DLSite
Описание:
A bashful heroine''s pro wrestling torture, hardcore crotch pounding, debased spiral into masochistic bliss.

Качество видео: GameRip
Разрешение видео: 720p
Формат видео: WMV
Видео кодек: Windows Media
Аудио кодек: WMA
Видео: Windows Media Video 9 1280x720 30fps 3000kbps
Аудио 1: WMA 2 44100Hz stereo 96kbp
Video
ID : 1
Format : VC-1
Format profile : MP@HL
Codec ID : WMV3
Codec ID/Info : Windows Media Video 9
Codec ID/Hint : WMV3
Description of the codec : Windows Media Video 9 - Professional
Duration : 9mn 51s
Bit rate mode : Constant
Bit rate : 3 000 Kbps
Width : 1 280 pixels
Height : 720 pixels
Display aspect ratio : 16:9
Frame rate : 30.000 fps
Bit depth : 8 bits
Scan type : Progressive
Compression mode : Lossy
Bits/(Pixel*Frame) : 0.109
Stream size : 212 MiB (99%)
Language : Latvian

Audio
ID : 2
Format : WMA
Format version : Version 2
Codec ID : 161
Codec ID/Info : Windows Media Audio
Description of the codec : Windows Media Audio 9.2 - 96 kbps, 44 kHz, stereo 1-pass CBR
Duration : 9mn 51s
Bit rate mode : Constant
Bit rate : 96.0 Kbps
Channel(s) : 2 channels
Sampling rate : 44.1 KHz
Bit depth : 16 bits
Stream size : 6.77 MiB (3%)

Miglia Jigokuhen destruction and insult thoroughly / レミリア地獄変 急所破壊徹底陵辱

Год производства: 2013 г.
Жанр: tentacles, pregnant women, nipple fuck, Rape
Продолжительность: 7:35
Цензура: Есть во всех файлах

Язык: Японский
Озвучка: Оригинальная
Субтитры: Встроенные неотключаемые (хардсаб)

Студия: @oz | DLSite
Описание: Девушка-вампир из вселенной тохо была поймана демонами

Качество видео: GameRip
Разрешение видео: 480p
Формат видео: WMV
Видео кодек: Windows Media
Аудио кодек: WMA
Видео: Windows Media Video 9 848x480 30fps 4377kbps
Аудио 1: WMA Pro 32000Hz stereo 32kbps
Video
ID : 1
Format : VC-1
Format profile : MP@HL
Codec ID : WMV3
Codec ID/Info : Windows Media Video 9
Codec ID/Hint : WMV3
Description of the codec : Windows Media Video 9
Duration : 7mn 35s
Bit rate mode : Variable
Bit rate : 4 377 Kbps
Width : 848 pixels
Height : 480 pixels
Display aspect ratio : 16:9
Frame rate : 30.000 fps
Bit depth : 8 bits
Scan type : Progressive
Compression mode : Lossy
Bits/(Pixel*Frame) : 0.358
Stream size : 237 MiB (97%)
Language : Latvian

Audio
ID : 2
Format : WMA
Format profile : Pro
Codec ID : 162
Codec ID/Info : Windows Media Audio
Description of the codec : Windows Media Audio 10 Professional - 32 kbps, 32 kHz, 2 channel 16 bit (A/V) 1-pass CBR
Duration : 7mn 35s
Bit rate mode : Constant
Bit rate : 32.0 Kbps
Channel(s) : 2 channels
Sampling rate : 32.0 KHz
Bit depth : 16 bits
Stream size : 1.74 MiB (1%)

A Certain Molestific Mikoto - Express Assault / とある美琴の痴漢電車 陵辱急行
Год производства: 2013 г.
Жанр: Dirty Talk, Uniform, Molestation
Продолжительность: 11:31
Цензура: Есть во всех файлах

Язык: Японский
Озвучка: Оригинальная
Субтитры: Встроенные неотключаемые (хардсаб)

Студия: @oz | DLSite
Описание: Студия @oz как всегда на высоте и сделала ещё одну хорошую игру с которой получился классный GameRip.
Всем фанатам, которым нравится, как на милую девушку нападает толпа голодных до секса в поезде.
Качество видео: GameRip
Формат видео: WMV
Видео кодек: Windows Media
Аудио кодек: WMA
Видео: Windows Media Video 9 848x476 30fps 5105kbps
Аудио 1: WMA Pro 44100Hz stereo 440kbps
Video
ID : 1
Format : VC-1
Format profile : MP@HL
Codec ID : WMV3
Codec ID/Info : Windows Media Video 9
Codec ID/Hint : WMV3
Description of the codec : Windows Media Video 9
Duration : 11mn 31s
Bit rate mode : Variable
Bit rate : 5 106 Kbps
Width : 848 pixels
Height : 476 pixels
Display aspect ratio : 16:9
Frame rate : 30.000 fps
Bit depth : 8 bits
Scan type : Progressive
Compression mode : Lossy
Bits/(Pixel*Frame) : 0.422
Stream size : 421 MiB (92%)
Language : Latvian

Audio
ID : 2
Format : WMA
Format profile : Pro
Codec ID : 162
Codec ID/Info : Windows Media Audio
Description of the codec : Windows Media Audio 10 Professional - 440 kbps, 44 kHz, 2 channel 24 bit (A/V) 1-pass CBR
Duration : 11mn 31s
Bit rate mode : Constant
Bit rate : 440 Kbps
Channel(s) : 2 channels
Sampling rate : 44.1 KHz
Bit depth : 24 bits
Stream size : 36.3 MiB (8%)

Vivid Ishikki At The Beach / ビビッと一色 海水浴 / Яркие Ishikki на пляже
Год производства: 2013 г.
Reslese 2013/06/31
Жанр: Uniform, Internal Cumshot, Golden Shower/Urination Anal
Серии: 1
Продолжительность: 17:26
Цензура: Есть во всех файлах

Язык: Японский
Озвучка: Оригинальная
Студия:@OZ | DLLsite|



Описание: Celebrate beauty with full access to various play from various angles.
You''ll fall in love when you see little sister-like Isshiki have multiple orgasms via caress,
oral sex (both giving and receiving), missionary, lotus and anal sex scenes.

Доп. информация: Interact with a cumshot finish, and control the speed of scene with a button press
* Costume customization: school uniform or sporty bikini!
* Realistic sound effects, liquid expression
* Voiced by Aya Asazuki, who performs more dirty talk than ever!
Качество видео: GameRip
Формат видео: WMV
Видео кодек: Windows Media
Аудио кодек: WMA
Видео: Windows Media Video 9 856x480 30fps 1287kbps [Raw Video 0]
Аудио 1: WMA Pro 44100Hz stereo 440kbps [Raw Audio 1]
http://atoz.x.fc2.com/tre/cg_ak_01_t.html
Video
ID : 1
Format : VC-1
Format profile : MP@HL
Codec ID : WMV3
Codec ID/Info : Windows Media Video 9
Codec ID/Hint : WMV3
Description of the codec : Windows Media Video 9
Duration : 17mn 26s
Bit rate mode : Variable
Bit rate : 1 288 Kbps
Width : 856 pixels
Height : 480 pixels
Display aspect ratio : 16:9
Frame rate : 30.000 fps
Bit depth : 8 bits
Scan type : Progressive
Compression mode : Lossy
Bits/(Pixel*Frame) : 0.104
Stream size : 161 MiB (74%)
Language : Latvian

Audio
ID : 2
Format : WMA
Format profile : Pro
Codec ID : 162
Codec ID/Info : Windows Media Audio
Description of the codec : Windows Media Audio 10 Professional - 440 kbps, 44 kHz, 2 channel 24 bit (A/V) 1-pass CBR
Duration : 17mn 26s
Bit rate mode : Constant
Bit rate : 440 Kbps
Channel(s) : 2 channels
Sampling rate : 44.1 KHz
Bit depth : 24 bits
Stream size : 54.9 MiB (25%)

Anegasaki hot spring / 姉ヶ崎温泉 / горячий источник Anegasaki
Год производства: 2013 г.
Reslese 2013/05/30
Жанр: Uniform, Tit Pies, breast milk , Anal
Серии: 1
Продолжительность: 20:05
Цензура: Есть во всех файлах

Язык: Японский
Озвучка: Оригинальная
Студия: @OZ
DLLsite
Описание:
Впервые я встретился с ней в семейном ресторане "Dekishizu", она работала там неполный рабочий день.
Честно говоря, это была любовь с первого взгляда. Я был поглощен ее улыбкой, жестами, линиями тела... Всем...
Найти бы возможность где-нибудь пошептаться c Anegasaki и узнать, что она думает обо мне...
И есть ли у меня возможность куда-нибудь ее пригласить???
Ее улыбка, которая смутила меня. Это было большое событие для меня. Знакомство с Anegasaki - это действительно весело.
И я решил... Что надо познакомиться с Anegasaki поближе. Эта весна будет жаркой для Anegasaki...

Спасибо lightthrash за содействие
Качество видео: GameRip
Формат видео: WMV
Видео кодек: Windows Media
Аудио кодек: WMA
Видео: Windows Media Video 9 1280x720 30fps 1200kbps [Raw Video 0]
Аудио 1: WMA 2 44100Hz stereo 192kbps [Raw Audio 1]
Video
ID : 1
Format : VC-1
Format profile : MP@HL
Codec ID : WMV3
Codec ID/Info : Windows Media Video 9
Codec ID/Hint : WMV3
Description of the codec : Windows Media Video 9 - Professional
Duration : 20mn 5s
Bit rate mode : Constant
Bit rate : 1 200 Kbps
Width : 1 280 pixels
Height : 720 pixels
Display aspect ratio : 16:9
Frame rate : 30.000 fps
Bit depth : 8 bits
Scan type : Progressive
Compression mode : Lossy
Bits/(Pixel*Frame) : 0.043
Stream size : 172 MiB (86%)
Language : Latvian

Audio
ID : 2
Format : WMA
Format version : Version 2
Codec ID : 161
Codec ID/Info : Windows Media Audio
Description of the codec : Windows Media Audio 9.2 - 192 kbps, 44 kHz, stereo 1-pass CBR
Duration : 20mn 5s
Bit rate mode : Constant
Bit rate : 192 Kbps
Channel(s) : 2 channels
Sampling rate : 44.1 KHz
Bit depth : 16 bits
Stream size : 27.6 MiB (14%)

[url=...1702586]Vivid Ishikki At The Beach (2013/06/31)[/url]
[url=...1671080]Anegasaki hot spring (2013/05/30)[/url]
[url=...1635804]SiLiCA GEL -Game Master''s Trap (2013/03/28)[/url]
[url=...1621162]Scarlet Devil Mansion restraint (2013/01/31)[/url]
[url=...1583718]Puella Magi Mami Brutalia (2012.11.30)[/url]
[url=...1582953]Hiroshi rei jinja kitan rei yume Рейму ryou joku (2012.09.28)[/url]
[url=...1583931]Janken R*pe with Smile Peace (2012/06/27)[/url]
[url=...1534368]Sumairupisu de janken reipu (DLversion) (2012/06/27)[/url]
[url=...1482803]Suntan Girl: The Heart That Bursts With Buxom Shame (2012.05.25)[/url]
[url=...1411830]Mercury Girl -A Heart Drowning In Darkness (2012.01.27)[/url]
[url=...1494034]Heroine Lovers Diary Movie (2011.10.11)[/url]
[url=...1325786]Deflowering armor angel " Blue Marine" (2011/06/23)[/url]
Приятного просмотра! Пожалуйста, поддержите раздачу!
Спасибо за Ваши будующие комментарии!
Трекер:  [ 31-Янв-2016 23:00 ]

Размер .torrent файла 12 KB


Размер: 2 GB
Хэш (hash) релиза: 5668950f31332e953b151941859b45aebf87935a
Подписка на обновления:

Еще никто не оставлял запись к записи скачать торрент The Collection @Oz Gamerips . Будь первым!

!Обратная связь
//main.js show_panel