Статистика раздачи
Размер:  1.16 GB   |    Зарегистрирован:  1 год 7 месяцев   |    .torrent скачан:  196 раз   |   

Пиры будут получены при скачивании

 

Скачать порно Yui-tan, Your Onakko Assistant через торрент бесплатно :: UnionPron.org

 
 
Автор Сообщение

Sakura

avatar Sakura


Yui-tan, Your Onakko Assistant / オナッ子お世話係ゆいたん

Год производства: 2015 г.
Жанр: Anal sex, Masturbation, Toys, Bunny Girl, BDSM, Minigirl, Blowjob / Oral sex, DFC / Tiny tits
Серии: 1
Продолжительность: 35mn 51s
Цензура: Есть во всех файлах

Язык: Японский
Озвучка: Оригинальная
Студия: Potato Mine / MiMia Cute

Описание: Looping animations from the protag''s perspective of a figure-like young girl.

Доп. информация: Собственноручный рип с игры, звук и видео монтировались в вегасе, если кто поможет с параметрами кодирования в личку.

Качество видео: GameRip
Разрешение видео: 720p
Формат видео: MKV
Видео: 1280х720, avc1, 16:9, 29.97FPS, 4500K
Аудио 1: JAP, AAC, 48.0 KHz, 132K, stereo
Ссылки:
Eng Site
Jap Site
General
Complete name : C:\Users\ivdos\Documents\[Potato mine] Yui-tan, Your Onakko Assistant\Yui-tan, Your Onakko Assistant.mkv
Format : MPEG-4
Format profile : Base Media
Codec ID : isom
File size : 1.16 GiB
Duration : 35mn 51s
Overall bit rate : 4 640 Kbps
Writing application : Lavf57.23.101

Video
ID : 1
Format : AVC
Format/Info : Advanced Video Codec
Format profile : High@L3.1
Format settings, CABAC : Yes
Format settings, ReFrames : 4 frames
Codec ID : avc1
Codec ID/Info : Advanced Video Coding
Duration : 35mn 51s
Bit rate : 4 500 Kbps
Width : 1 280 pixels
Height : 720 pixels
Display aspect ratio : 16:9
Frame rate mode : Constant
Frame rate : 29.970 fps
Color space : YUV
Chroma subsampling : 4:2:0
Bit depth : 8 bits
Scan type : Progressive
Bits/(Pixel*Frame) : 0.163
Stream size : 1.13 GiB (97%)
Writing library : x264 core 148 r2638 7599210
Encoding settings : cabac=1 / ref=3 / deblock=1:0:0 / analyse=0x3:0x113 / me=hex / subme=7 / psy=1 / psy_rd=1.00:0.00 / mixed_ref=1 / me_range=16 / chroma_me=1 / trellis=1 / 8x8dct=1 / cqm=0 / deadzone=21,11 / fast_pskip=1 / chroma_qp_offset=-2 / threads=12 / lookahead_threads=2 / sliced_threads=0 / nr=0 / decimate=1 / interlaced=0 / bluray_compat=0 / constrained_intra=0 / bframes=3 / b_pyramid=2 / b_adapt=1 / b_bias=0 / direct=1 / weightb=1 / open_gop=0 / weightp=2 / keyint=250 / keyint_min=25 / scenecut=40 / intra_refresh=0 / rc_lookahead=40 / rc=2pass / mbtree=1 / bitrate=4500 / ratetol=1.0 / qcomp=0.60 / qpmin=0 / qpmax=69 / qpstep=4 / cplxblur=20.0 / qblur=0.5 / ip_ratio=1.40 / aq=1:1.00
Language : Russian

Audio
ID : 2
Format : AAC
Format/Info : Advanced Audio Codec
Format profile : LC
Codec ID : 40
Duration : 35mn 51s
Bit rate mode : Constant
Bit rate : 132 Kbps
Channel(s) : 2 channels
Channel positions : Front: L R
Sampling rate : 48.0 KHz
Compression mode : Lossy
Stream size : 33.5 MiB (3%)
Language : Russian
Трекер:  [ 31-Янв-2016 05:30 ]

Размер .torrent файла 47 KB


Размер: 1.16 GB
Хэш (hash) релиза: cabb6aa93d4b4a73439d8e4b12769b0a9c46824d
Подписка на обновления:

Еще никто не оставлял запись к записи скачать торрент Yui-tan, Your Onakko Assistant . Будь первым!

!Обратная связь
//main.js show_panel