Статистика раздачи
Размер:  1.1 GB   |    Зарегистрирован:  1 год 8 месяцев   |    .torrent скачан:  20 раз   |   

Пиры будут получены при скачивании

 

Скачать порно Affari in Famiglia / Papa, der ist aber gross / L'Appel du sexe / Sacree famille / Семейные делишки через торрент бесплатно :: UnionPron.org

 
 
Автор Сообщение

Sakura

avatar Sakura


Affari in (di) Famiglia | Papa, der ist aber gross | L''Appel du sexe | Sacree famille | Семейные делишки
[url=...1287695] [/url]
Год производства: 2000 г.
Страна: Италия | Italy

Жанр: Feature
Продолжительность: 01:13:41
Язык: Итальянский | Italian

Режиссер: Giancarlo Bini
Студия: Mille Video / Mario Salieri Entertainment Group

В ролях: [url=...1287695]Laura Angel[/url], [url=...1236823]Dora Venter[/url], [url=...1148741]Dolly Golden[/url], Rada Palos, [url=...2047271]Thunde Virgin[/url], Andrea Sikos, Richard Langin, Silvio Evangelista, Rodolph Dessen, Giancarlo Bini, Marc Barrow

Описание: Фильм о непростых взаимоотношениях в семье.

Качество видео: DVDRip
Формат видео: AVI

Видео: MPEG4, XviD, 720x576 (4:3), 29.970 fps, 1 993 Kbps (0.160 bit/pixel)
Аудио: MP3, 44.1 KHz, 2 ch, 128 Kbps, CBR

[url=...990907]Affari di famiglia (601 MB)[/url]

Scene Breakdowns:
Scene 1. [url=...1287695]Laura Angel[/url], Silvio Evangelista
Scene 2. [url=...2047271]Elisabeth Swiss[/url], Reda, Silvio Evangelista
Scene 3. [url=...1236823]Dora Venter[/url], Rodolphe Antrim
Scene 4. [url=...1148741]Dolly Golden[/url], Richard Langin, Rodolphe Antrim
Scene 5. Andrea Sikos, Marc Barrow
General
Format : AVI
Format/Info : Audio Video Interleave
Format profile : OpenDML
File size : 1.10 GiB
Duration : 2h 47mn
Overall bit rate : 939 Kbps
Writing application : Lavf52.61.0
Video
Format : MPEG-4 Visual
Format profile : Simple@L3
Format settings, BVOP : No
Format settings, QPel : No
Format settings, GMC : No warppoints
Format settings, Matrix : Default (H.263)
Codec ID : XVID
Codec ID/Hint : XviD
Duration : 2h 47mn
Bit rate : 875 Kbps
Width : 720 pixels
Height : 576 pixels
Display aspect ratio : 4/3
Frame rate : 29.970 fps
Standard : PAL
Resolution : 24 bits
Colorimetry : 4:2:0
Scan type : Progressive
Bits/(Pixel*Frame) : 0.070
Stream size : 1.03 GiB (93%)
Writing library : XviD 1.2.1 (UTC 2008-12-04)
Audio
Format : MPEG Audio
Format version : Version 1
Format profile : Layer 3
Codec ID : 55
Codec ID/Hint : MP3
Duration : 1h 13mn
Bit rate mode : Constant
Bit rate : 128 Kbps
Channel(s) : 2 channels
Sampling rate : 44.1 KHz
Resolution : 16 bits
Stream size : 67.5 MiB (6%)
Alignment : Aligned on interleaves
Interleave, duration : 26 ms (0.78 video frame)
Трекер:  [ 28-Янв-2016 18:00 ]

Размер .torrent файла 12 KB


Размер: 1.1 GB
Хэш (hash) релиза: 7a5379b134346aa2489b684c77d62628a91a82b1
Подписка на обновления:

Еще никто не оставлял запись к записи скачать торрент Affari in . Будь первым!

!Обратная связь
//main.js show_panel