Статистика раздачи
Размер:  627 MB   |    Зарегистрирован:  1 год 4 месяца   |    .torrent скачан:  27 раз   |   

Пиры будут получены при скачивании

 

Скачать порно La Croisiere d'Anita / Sauerei auf der Bounty / Sex Run / Terrore sul mare / Террор на море через торрент бесплатно :: UnionPron.org

 
 
Автор Сообщение

Sakura

avatar Sakura


La Croisiere d''Anita | Sauerei auf der Bounty | Sex Run | Terrore sul mare | Террор на море
Год производства: 1990-e г.г.
Страна: Италия | Italy
Жанр: Feature
Продолжительность: 01:21:07
Язык: Итальянский | Italian

Режиссер: Ralf Scott
Студия: XY Pictures | Selen Communications

В ролях:
Actresses:
- [url=...1180812]Anita Dark[/url]
- Magali Robinson
- Masha Kley
- Michele Soavy
- Penelope

Actors:
- David Perry

Описание: Редкий фильм! Но качество отвратительное!

Качество видео: VHSRip
Формат видео: AVI
Видео: MPEG4, DivX 3 Low, 352x288 (1.222), 25.000 fps, 982 Kbps (0.387 bit/pixel)
Аудио: PCM, 11.025 KHz, 1 ch, 88.2 Kbps, CBR
General
Format : AVI
Format/Info : Audio Video Interleave
File size : 626 MiB
Duration : 1h 21mn
Overall bit rate : 1 080 Kbps
Writing library : VirtualDub build 16297/release
Video
Format : MPEG-4 Visual
Codec ID : DIV3
Codec ID/Hint : DivX 3 Low
Duration : 1h 21mn
Bit rate : 982 Kbps
Width : 352 pixels
Height : 288 pixels
Display aspect ratio : 1.222
Frame rate : 25.000 fps
Resolution : 24 bits
Bits/(Pixel*Frame) : 0.387
Stream size : 570 MiB (91%)
Audio
Format : PCM
Format settings, Endianness : Little
Format settings, Sign : Unsigned
Codec ID : 1
Codec ID/Hint : Microsoft
Duration : 1h 21mn
Bit rate mode : Constant
Bit rate : 88.2 Kbps
Channel(s) : 1 channel
Sampling rate : 11.025 KHz
Resolution : 8 bits
Stream size : 51.2 MiB (8%)
Interleave, duration : 40 ms (1.00 video frame)
Interleave, preload duration : 500 ms
Трекер:  [ 28-Янв-2016 18:00 ]

Размер .torrent файла 13 KB


Размер: 627 MB
Хэш (hash) релиза: fa7a5959b90a9222afb7dac60f1e67133ae0b168
Подписка на обновления:

Еще никто не оставлял запись к записи скачать торрент La Croisiere d'Anita Sauerei auf der Bounty . Будь первым!

!Обратная связь
//main.js show_panel