Статистика раздачи
Размер:  1.19 GB   |    Зарегистрирован:  1 год 5 месяцев   |    .torrent скачан:  24 раза   |   

Пиры будут получены при скачивании

 

Скачать порно Arrogance: No Limits / Arrogance – Inutile Resisterle / Высокомерие , Capital Film) через торрент бесплатно :: UnionPron.org

 
 
Автор Сообщение

Sakura

avatar Sakura


Arrogance: No Limits | Arrogance – Inutile Resisterle | Высокомерие
[url=...1567720] [/url][url=...1147325] [/url] [url=...1553110] [/url]
Год производства: 1999 г.
Страна: Франция | France
Жанр: Feature
Продолжительность: 02:00:09
Язык: Итальянский | Italian

Режиссер: Joe D''Amato (as Sergey de Palma)
Студия: Capital Film

В ролях: [url=...1567720]Wanda Curtis[/url], Eva Coscia, [url=...1553110]Judith Kostner[/url], [url=...1147325]Nikki Anderson[/url], Renata Rey, Ursula Moore, [url=...2042427]Deborah Valentine[/url] (non sex), Marina Akta (non sex), Alberto Rey, David Perry, Frank Major, Jay Lassiter, Leslie Taylor, Mike Foster, Zenza Raggi, Marco Cerami, Paolo Caribe

Описание: De superbes créatures prêtes à toutes les perversions pour assouvir des fantasmes délirants.
Scene Breakdowns
:
Scene 1. [url=...1567720]Wanda Curtis[/url], Mike Foster
Scene 2. Eva Coscia, Alberto Rey, David Perry
Scene 3. [url=...1567720]Wanda Curtis[/url], David Perry
Scene 4. [url=...1567720]Wanda Curtis[/url], Renata Rey
Scene 5. Renata Rey, Frank Major
Scene 6. Ursula Moore, Alberto Rey
Scene 7. [url=...1567720]Wanda Curtis[/url]
Scene 8. [url=...1147325]Nikki Anderson[/url], Mike Foster
Scene 9. [url=...1567720]Wanda Curtis[/url]
Scene 10. [url=...1567720]Wanda Curtis[/url], Zenza Raggi
Scene 11. [url=...1553110]Judith Kostner[/url], Leslie Taylor
Scene 12. Renata Rey, David Perry
Scene 13. [url=...1567720]Wanda Curtis[/url], Frank Major
Scene 14. Renata Rey, Jay Lassiter

Качество видео: DVDRip
Формат видео: AVI
Видео: MPEG4, XviD, 720x576 (5:4), 25.000 fps, 1 250 Kbps (0.121 bit/pixel)
Аудио: MP3, 44.1 KHz, 2 ch, 160 Kbps, CBR

[url=...393887]Arrogance (709 MB)[/url]
General
Format : AVI
Format/Info : Audio Video Interleave
File size : 1.19 GiB
Duration : 2h 0mn
Overall bit rate : 1 421 Kbps
Writing library : MPlayer
Video
Format : MPEG-4 Visual
Format profile : Streaming Video@L1
Format settings, BVOP : Yes
Format settings, QPel : No
Format settings, GMC : No warppoints
Format settings, Matrix : Default (H.263)
Codec ID : XVID
Codec ID/Hint : XviD
Duration : 2h 0mn
Bit rate : 1 250 Kbps
Width : 720 pixels
Height : 576 pixels
Display aspect ratio : 5/4
Frame rate : 25.000 fps
Standard : PAL
Resolution : 24 bits
Colorimetry : 4:2:0
Scan type : Progressive
Bits/(Pixel*Frame) : 0.121
Stream size : 1.05 GiB (88%)
Writing library : XviD 1.1.2 (UTC 2006-11-01)
Audio
Format : MPEG Audio
Format version : Version 1
Format profile : Layer 3
Codec ID : 55
Codec ID/Hint : MP3
Duration : 1h 59mn
Bit rate mode : Constant
Bit rate : 160 Kbps
Channel(s) : 2 channels
Sampling rate : 44.1 KHz
Resolution : 16 bits
Video delay : 40ms
Stream size : 137 MiB (11%)
Alignment : Aligned on interleaves
Interleave, duration : 26 ms (0.66 video frame)
Interleave, preload duration : 809 ms
Трекер:  [ 24-Янв-2016 20:30 ]

Размер .torrent файла 12 KB


Размер: 1.19 GB
Хэш (hash) релиза: 9f183c7b7a13f0bb2e78f0f7b7749efc70a07e0b
Подписка на обновления:

Еще никто не оставлял запись к записи скачать торрент Arrogance: No Limits Arrogance – Inutile Resisterle . Будь первым!

!Обратная связь
//main.js show_panel