Статистика раздачи
Размер:  2 GB   |    Зарегистрирован:  11 месяцев   |    .torrent скачан:  46 раз   |   

Пиры будут получены при скачивании

 

Скачать порно Saishuu Chikan Densha Next / The Last Molester Train Next / Страсти извращенцев в поезде через торрент бесплатно :: UnionPron.org

 
 
Автор Сообщение

Sakura

avatar Sakura


最終痴漢電車NEXT | Saishuu Chikan Densha Next | The Last Molester Train Next | Страсти извращенцев в поезде


Год выпуска: 2012
Страна: Япония
Жанр: anal sex, big tits, milk, mind break, oral sex, rape, x-ray
Продолжительность: >2 эп. по 30 мин.
Субтитры: Отсутствуют
Цензура: Присутствует
Режиссёр: Hayakawa Naomi
Студия: Pink Pineapple
Описание:
It is now the year 2010. The reprehensible and secret brotherhood known as the Last Molester Train has been driven underground once again, its three year reign of sexual predation extinguished under the militant ultra-feminist organization known as Raven Guard. However all is not yet lost. The Last Molester Train continued to search for a savior who could restore their patriarchy to glory, and at long last that man has been found...
Информационные ссылки: AniDB || MAL || World Art || ХентайМаг
Исходник: DVD-5
Видео: MPEG2 | NTSC | 16x9 | 720x480 | 9400 Kbps
Аудио JAP: AC-3 | 48000Hz | 192 Kbps | 2ch
01. I`m Just... an Average Molester
02. You Are the Perfect Woman
General
Complete name : H:\VIDEO_TS\VTS_01_1.VOB
Format : MPEG-PS
File size : 1 023 MiB
Duration : 16mn 44s
Overall bit rate mode : Variable
Overall bit rate : 8 544 Kbps
Writing library : encoded by TMPGEnc Video Mastering Works 5 Version. 5.2.4.68

Video
ID : 224 (0xE0)
Format : MPEG Video
Format version : Version 2
Format profile : Main@Main
Format settings, BVOP : Yes
Format settings, Matrix : Custom
Format settings, GOP : M=3, N=16
Duration : 16mn 44s
Bit rate mode : Variable
Bit rate : 8 182 Kbps
Maximum bit rate : 9 400 Kbps
Width : 720 pixels
Height : 480 pixels
Display aspect ratio : 16:9
Frame rate : 29.970 fps
Standard : NTSC
Color space : YUV
Chroma subsampling : 4:2:0
Bit depth : 8 bits
Scan type : Interlaced
Scan order : Top Field First
Compression mode : Lossy
Bits/(Pixel*Frame) : 0.790
Stream size : 980 MiB (96%)
Writing library : TMPGEnc Video Mastering Works 5 Version. 5.2.4.68
Color primaries : SMPTE 170M
Transfer characteristics : SMPTE 170M
Matrix coefficients : SMPTE 170M

Audio
ID : 189 (0xBD)-128 (0x80)
Format : AC-3
Format/Info : Audio Coding 3
Mode extension : CM (complete main)
Muxing mode : DVD-Video
Duration : 16mn 44s
Bit rate mode : Constant
Bit rate : 192 Kbps
Channel(s) : 2 channels
Channel positions : Front: L R
Sampling rate : 48.0 KHz
Bit depth : 16 bits
Compression mode : Lossy
Stream size : 23.0 MiB (2%)


Исходник: DVD-5
Видео: MPEG2 | NTSC | 16x9 | 720x480 | 9400 Kbps
Аудио JAP: AC-3 | 48000Hz | 192 Kbps | 2ch
General
Complete name : H:\VIDEO_TS\VTS_01_1.VOB
Format : MPEG-PS
File size : 1 023 MiB
Duration : 16mn 21s
Overall bit rate mode : Variable
Overall bit rate : 8 748 Kbps
Writing library : encoded by TMPGEnc Video Mastering Works 5 Version. 5.3.0.82

Video
ID : 224 (0xE0)
Format : MPEG Video
Format version : Version 2
Format profile : Main@Main
Format settings, BVOP : Yes
Format settings, Matrix : Custom
Format settings, GOP : M=3, N=16
Duration : 16mn 21s
Bit rate mode : Variable
Bit rate : 8 382 Kbps
Maximum bit rate : 9 400 Kbps
Width : 720 pixels
Height : 480 pixels
Display aspect ratio : 16:9
Frame rate : 29.970 fps
Standard : NTSC
Color space : YUV
Chroma subsampling : 4:2:0
Bit depth : 8 bits
Scan type : Interlaced
Scan order : Top Field First
Compression mode : Lossy
Bits/(Pixel*Frame) : 0.809
Stream size : 981 MiB (96%)
Writing library : TMPGEnc Video Mastering Works 5 Version. 5.3.0.82
Color primaries : SMPTE 170M
Transfer characteristics : SMPTE 170M
Matrix coefficients : SMPTE 170M

Audio
ID : 189 (0xBD)-128 (0x80)
Format : AC-3
Format/Info : Audio Coding 3
Mode extension : CM (complete main)
Muxing mode : DVD-Video
Duration : 16mn 21s
Bit rate mode : Constant
Bit rate : 192 Kbps
Channel(s) : 2 channels
Channel positions : Front: L R
Sampling rate : 48.0 KHz
Bit depth : 16 bits
Compression mode : Lossy
Stream size : 22.5 MiB (2%)
[url=...1005692#23]Чем воспроизводить образ диска формата *.ISO[/url]
Трекер:  [ 21-Янв-2016 22:30 ]

Размер .torrent файла 33 KB


Размер: 2 GB
Хэш (hash) релиза: de26a989509edc41cbe8f89d56ca952457ecb2ae
Подписка на обновления:

Еще никто не оставлял запись к записи скачать торрент Saishuu Chikan Densha Next The Last Molester Train Next . Будь первым!

!Обратная связь
//main.js show_panel