Статистика раздачи
Размер:  1.49 GB   |    Зарегистрирован:  1 год 5 месяцев   |    .torrent скачан:  23 раза   |   

Пиры будут получены при скачивании

 

Скачать порно All American Girls 3: Up Up and Away / Все Американские Девушки 3: Всё выше и выше через торрент бесплатно :: UnionPron.org

 
 
Автор Сообщение

Sakura

avatar Sakura


All American Girls 3: Up Up and Away / Все Американские Девушки 3: Всё выше и выше

Год производства: 1984 г.
Страна: USA
Жанр: Feature, Classic, Straight
Продолжительность: 01:23:36
Язык: Английский

Режиссер: Jim Hunter
Студия: Caballero Home Video

В ролях: Ginger Lynn, Laurie Smith, Bridgette Monet, Colleen Brennan, Stacy Donovan (Stacey Donovan), Cody Nicole, Bunny Bleu, Gabrielle Behar, Lisa Thoma (Cynthia Brooks), Shelly Rey (Debi Diamond)

Описание: Классический фильм с роскошными стюардессами. Они готовы выполнить любой ваш каприз. На высоте 10 000 метров происходят невиданные страсти.

Доп. информация: http://www.iafd.com/title.rme/title=All+American+Girls+3%3A+Up+Up+and+Away/year=1984/all-american-girls-3-up-up-and-away.htm

Исходник -[url=...1646929]DVD[/url]
Спасибо -Blow Job

Качество видео: DVDRip-AVC
Формат видео: MKV
Видео: x264 | 704:536 | 23,976 кадра/сек | 2302 Кбит/сек | 0.254
Аудио: AC-3 | 48,0 КГц | 2 канала | 192 Кбит/сек
Полное имя : E:\All American Girls 3 - Up Up and Away (1984).mkv
Формат : Matroska
Версия формата : Version 2
Размер файла : 1,49 Гбайт
Продолжительность : 1 ч. 23 м.
Общий поток : 2545 Кбит/сек
Название фильма : релиз для PORNOLAB.NET
Дата кодирования : UTC 2016-01-20 09:39:01
Программа кодирования : mkvmerge v7.9.0 (''Birds'') 32bit
Библиотека кодирования : libebml v1.3.1 + libmatroska v1.4.2
Attachments : poster.jpg

Видео
Идентификатор : 1
Формат : AVC
Формат/Информация : Advanced Video Codec
Профиль формата : High@L3.1
Параметр CABAC формата : Да
Параметр ReFrames формата : 8 кадров
Идентификатор кодека : V_MPEG4/ISO/AVC
Продолжительность : 1 ч. 23 м.
Битрейт : 2302 Кбит/сек
Ширина : 704 пикселя
Высота : 536 пикселей
Соотношение сторон : 4:3
Режим частоты кадров : Постоянный
Частота кадров : 23,976 (24000/1001) кадра/сек
Цветовое пространство : YUV
Субдискретизация насыщенности : 4:2:0
Битовая глубина : 8 бит
Тип развёртки : Прогрессивная
Бит/(Пиксели*Кадры) : 0.254
Размер потока : 1,34 Гбайт (90%)
Библиотека кодирования : x264 core 148 r2638 7599210
Настройки программы : cabac=1 / ref=8 / deblock=1:0:0 / analyse=0x3:0x113 / me=umh / subme=9 / psy=1 / psy_rd=0.90:0.15 / mixed_ref=1 / me_range=24 / chroma_me=1 / trellis=2 / 8x8dct=1 / cqm=0 / deadzone=21,11 / fast_pskip=1 / chroma_qp_offset=-3 / threads=4 / lookahead_threads=1 / sliced_threads=0 / nr=0 / decimate=0 / interlaced=0 / bluray_compat=0 / constrained_intra=0 / bframes=5 / b_pyramid=2 / b_adapt=2 / b_bias=0 / direct=1 / weightb=1 / open_gop=0 / weightp=2 / keyint=250 / keyint_min=23 / scenecut=40 / intra_refresh=0 / rc_lookahead=60 / rc=crf / mbtree=1 / crf=17.0 / qcomp=0.70 / qpmin=0 / qpmax=69 / qpstep=4 / ip_ratio=1.40 / aq=1:1.00
Default : Да
Forced : Нет

Аудио
Идентификатор : 2
Формат : AC-3
Формат/Информация : Audio Coding 3
Расширение режима : CM (complete main)
Параметр Endianness формата : Big
Идентификатор кодека : A_AC3
Продолжительность : 1 ч. 23 м.
Вид битрейта : Постоянный
Битрейт : 192 Кбит/сек
Каналы : 2 канала
Расположение каналов : Front: L R
Частота : 48,0 КГц
Частота кадров : 31,250 кадров/сек (1536 spf)
Метод сжатия : С потерями
Размер потока : 115 Мбайт (8%)
Язык : English
Default : Да
Forced : Нет

Меню
00:07:10.000 : :Scene 1. Stacey Donovan
00:13:15.000 : :Scene 2. Cody Nicole
00:23:18.000 : :Scene 3. Debi Diamond
00:28:20.000 : :Scene 4. Ginger Lynn
00:37:46.000 : :Scene 5. Stacey Donovan
00:44:06.000 : :Scene 6. Bunny Bleu, Cynthia Brooks
00:50:07.000 : :Scene 7. Gabrielle Behar
00:55:44.000 : :Scene 8. Cody Nicole & Colleen Brennan & Laurie Smith
01:00:14.000 : :Scene 9. Bridgette Monet, Gabrielle Behar
01:03:42.000 : :Scene 10. Cody Nicole
01:09:23.000 : :Scene 11. Colleen Brennan, Laurie Smith
01:21:10.000 : :Scene 12. Cody Nicole
Scene 1. Stacey Donovan, Paul Thomas
Scene 2. Cody Nicole, Paul Thomas
Scene 3. Debi Diamond, Larry Harwood
Scene 4. Ginger Lynn, Sasha Gabor
Scene 5. Stacey Donovan, Jerry Butler
Scene 6. Bunny Bleu, Cynthia Brooks, Paul Thomas
Scene 7. Gabrielle Behar, Sasha Gabor
Scene 8. Cody Nicole, Colleen Brennan, Laurie Smith
Scene 9. Bridgette Monet, Gabrielle Behar, David Cannon
Scene 10. Cody Nicole, Greg Rome
Scene 11. Colleen Brennan, Laurie Smith, Jamie Gillis
Scene 12. Cody Nicole, Jerry Butler
[url=...2121574]All American Girls 2: In Heat[/url][url=...2102827]All American Girls 4: Heartthrobs[/url]
Трекер:  [ 20-Янв-2016 17:00 ]

Размер .torrent файла 15 KB


Размер: 1.49 GB
Хэш (hash) релиза: fa5c590327ccba37a016f391e71f3a09abf1bb30
Подписка на обновления:

Еще никто не оставлял запись к записи скачать торрент All American Girls 3: Up Up and Away Все Американские Девушки 3: Всё выше и выше . Будь первым!

!Обратная связь
//main.js show_panel