Статистика раздачи
Размер:  1.43 GB   |    Зарегистрирован:  1 год 8 месяцев   |    .torrent скачан:  35 раз   |   

Пиры будут получены при скачивании

 

Скачать порно All American Girls 2: In Heat / Известные на всю Америку Девушки 2: В жару через торрент бесплатно :: UnionPron.org

 
 
Автор Сообщение

Sakura

avatar Sakura


All American Girls 2: In Heat / Известные на всю Америку Девушки 2: В жару

Год производства: 1983 г.
Страна: USA
Жанр: Classic, Feature, Straight
Продолжительность: 01:24:35
Язык: Английский

Режиссер: Bill Eagle
Студия: Caballero

В ролях: Shauna Grant, Shelli Rey, Laurie Smith, Michelle Lee (Karen Summer), Gina Martell, Rose Brandon, Jodie Preston, Jacy Allen, Ron Jeremy, Blake Palmer, Ken Starbuck, Tom Byron

Описание: Группа из семи студенток колледжа собирается развлечься во время круиза по южной части Тихого океана. Позже одна из них, влюбляясь, нарушает правила игры этого женского клуба.

Доп. информация: http://www.iafd.com/title.rme/title=All+American+Girls+2%3A+In+Heat/year=1983/all-american-girls-2-in-heat

[url=...1045264]DVD[/url]
Спасибо - pve

Качество видео: DVDRip-AVC
Формат видео: MKV
Видео: х264 | 696х536 | 23,976 кадра/сек | 2175 Кбит/сек | 0.243
Аудио: AC-3 | 48,0 КГц | 2 канала | 192 Кбит/сек
Полное имя : E:\All American Girls 2 - In Heat (1983).mkv
Формат : Matroska
Версия формата : Version 2
Размер файла : 1,43 Гбайт
Продолжительность : 1 ч. 24 м.
Общий поток : 2415 Кбит/сек
Дата кодирования : UTC 2016-01-17 10:07:14
Программа кодирования : mkvmerge v7.9.0 (''Birds'') 32bit
Библиотека кодирования : libebml v1.3.1 + libmatroska v1.4.2
Attachments : poster.jpg

Видео
Идентификатор : 1
Формат : AVC
Формат/Информация : Advanced Video Codec
Профиль формата : High@L3.1
Параметр CABAC формата : Да
Параметр ReFrames формата : 8 кадров
Идентификатор кодека : V_MPEG4/ISO/AVC
Продолжительность : 1 ч. 24 м.
Битрейт : 2175 Кбит/сек
Ширина : 696 пикселей
Высота : 536 пикселей
Соотношение сторон : 1,299
Режим частоты кадров : Постоянный
Частота кадров : 23,976 (24000/1001) кадра/сек
Цветовое пространство : YUV
Субдискретизация насыщенности : 4:2:0
Битовая глубина : 8 бит
Тип развёртки : Прогрессивная
Бит/(Пиксели*Кадры) : 0.243
Размер потока : 1,29 Гбайт (90%)
Библиотека кодирования : x264 core 148 r2638 7599210
Настройки программы : cabac=1 / ref=8 / deblock=1:0:0 / analyse=0x3:0x113 / me=umh / subme=9 / psy=1 / psy_rd=1.00:0.20 / mixed_ref=1 / me_range=24 / chroma_me=1 / trellis=2 / 8x8dct=1 / cqm=0 / deadzone=21,11 / fast_pskip=1 / chroma_qp_offset=-3 / threads=4 / lookahead_threads=1 / sliced_threads=0 / nr=0 / decimate=0 / interlaced=0 / bluray_compat=0 / constrained_intra=0 / bframes=5 / b_pyramid=2 / b_adapt=2 / b_bias=0 / direct=1 / weightb=1 / open_gop=0 / weightp=2 / keyint=250 / keyint_min=23 / scenecut=40 / intra_refresh=0 / rc_lookahead=60 / rc=crf / mbtree=1 / crf=17.5 / qcomp=0.70 / qpmin=0 / qpmax=69 / qpstep=4 / ip_ratio=1.40 / aq=1:1.00
Default : Да
Forced : Нет

Аудио
Идентификатор : 2
Формат : AC-3
Формат/Информация : Audio Coding 3
Расширение режима : CM (complete main)
Параметр Endianness формата : Big
Идентификатор кодека : A_AC3
Продолжительность : 1 ч. 24 м.
Вид битрейта : Постоянный
Битрейт : 192 Кбит/сек
Каналы : 2 канала
Расположение каналов : Front: L R
Частота : 48,0 КГц
Частота кадров : 31,250 кадров/сек (1536 spf)
Метод сжатия : С потерями
Размер потока : 116 Мбайт (8%)
Язык : English
Default : Да
Forced : Нет

Меню
00:00:40.000 : :Scene 1. Shauna Grant
00:13:49.000 : :Scene 2+3. Laurie Smith, Karen Summer
00:24:49.000 : :Scene 4. Shauna Grant
00:36:47.000 : :Scene 5. Debi Diamond
00:47:05.000 : :Scene 6. Jacy Allen
00:52:26.000 : :Scene 7. Gina Martell
01:01:37.000 : :Scene 8. Laurie Smith
01:06:32.000 : :Scene 9. Shauna Grant & Debi Diamond
01:10:16.000 : :Scene 10+11. Rosa Lee Kimball, Shauna Grant
Scene 1. Shauna Grant, Blake Palmer
Scene 2. Laurie Smith, Barnett Philips, Marc Wallice
Scene 3. Karen Summer, Ron Jeremy
Scene 4. Shauna Grant, Paul Thomas
Scene 5. Debi Diamond, Blake Palmer
Scene 6. Jacy Allen, Paul Baressi
Scene 7. Gina Martell, Starbuck
Scene 8. Laurie Smith, Blake Palmer
Scene 9. Shauna Grant, Debi Diamond
Scene 10. Rosa Lee Kimball, Tom Byron
Scene 11. Shauna Grant, Blake Palmer
[url]...564332[/url]
[url=...2102827]All American Girls 4: Heartthrobs[/url]
Трекер:  [ 18-Янв-2016 14:00 ]

Размер .torrent файла 14 KB


Размер: 1.43 GB
Хэш (hash) релиза: 8303fc6ccba6a61454f62035aafadd029010fdaf
Подписка на обновления:

Еще никто не оставлял запись к записи скачать торрент All American Girls 2: In Heat Известные на всю Америку Девушки 2: В жару . Будь первым!

!Обратная связь
//main.js show_panel