Статистика раздачи
Размер:  1.42 GB   |    Зарегистрирован:  1 год 2 месяца   |    .torrent скачан:  53 раза   |   

Пиры будут получены при скачивании

 

Скачать порно Delicious / Восхитительная через торрент бесплатно :: UnionPron.org

 
 
Автор Сообщение

Sakura

avatar Sakura


Delicious / Восхитительная

Год производства: 1981 г.
Страна: USA
Жанр: Feature, classic
Продолжительность: 01:20:50
Язык: Английский

Режиссер: Philip Drexler Jr.
Студия: Video-X-Pix

В ролях: Veronica Hart, Candida Royalle, Nicole Scent, Desiree Cousteau, Jane Kelton, R. Bolla, Aaron Stuart, Arthur West, Michael Gaunt, Ron Jeremy, George Payne

Описание: Кандида Рояль ( Каролина) фригидна, и ей трудно справиться с вечно сексуально-голодным мужем (Гарольдом). Она ловит его с каждой горничной, которых они нанимают (включая матершинницу Дезире Кусто которую мы имеем честь наблюдать в начале фильма). Вероника Харт ( Дивайн) является для Кандиды последней надеждой на помощь в бытовых мелочах, но она не знает, что за личиной послушной служанки скрывается еще и хорошенькая и озорная ведьмочка.

Исходник [url=...1045264]DVD[/url]
Спасибо - pve

Качество видео: DVDRip-AVC
Формат видео: MKV
Видео: х264| 696x536| 23,976 кадра/сек| 2278 Кбит/сек| 0.255
Аудио: AC-3| 48,0 КГц| стерео| 192 Кбит/сек
Полное имя : E:\Восхитительная (Delicious. 1981).mkv
Формат : Matroska
Версия формата : Version 2
Размер файла : 1,42 Гбайт
Продолжительность : 1 ч. 20 м.
Общий поток : 2520 Кбит/сек
Дата кодирования : UTC 2016-01-14 17:56:32
Программа кодирования : mkvmerge v7.9.0 (''Birds'') 32bit
Библиотека кодирования : libebml v1.3.1 + libmatroska v1.4.2
Attachments : poster.jpeg

Видео
Идентификатор : 1
Формат : AVC
Формат/Информация : Advanced Video Codec
Профиль формата : High@L3.1
Параметр CABAC формата : Да
Параметр ReFrames формата : 8 кадров
Идентификатор кодека : V_MPEG4/ISO/AVC
Продолжительность : 1 ч. 20 м.
Битрейт : 2278 Кбит/сек
Ширина : 696 пикселей
Высота : 536 пикселей
Соотношение сторон : 1,299
Режим частоты кадров : Постоянный
Частота кадров : 23,976 (24000/1001) кадра/сек
Цветовое пространство : YUV
Субдискретизация насыщенности : 4:2:0
Битовая глубина : 8 бит
Тип развёртки : Прогрессивная
Бит/(Пиксели*Кадры) : 0.255
Размер потока : 1,29 Гбайт (90%)
Библиотека кодирования : x264 core 148 r2638 7599210
Настройки программы : cabac=1 / ref=8 / deblock=1:0:0 / analyse=0x3:0x113 / me=umh / subme=9 / psy=1 / psy_rd=1.00:0.10 / mixed_ref=1 / me_range=24 / chroma_me=1 / trellis=2 / 8x8dct=1 / cqm=0 / deadzone=21,11 / fast_pskip=1 / chroma_qp_offset=-3 / threads=4 / lookahead_threads=1 / sliced_threads=0 / nr=0 / decimate=0 / interlaced=0 / bluray_compat=0 / constrained_intra=0 / bframes=5 / b_pyramid=2 / b_adapt=2 / b_bias=0 / direct=1 / weightb=1 / open_gop=0 / weightp=2 / keyint=250 / keyint_min=23 / scenecut=40 / intra_refresh=0 / rc_lookahead=60 / rc=crf / mbtree=1 / crf=17.5 / qcomp=0.70 / qpmin=0 / qpmax=69 / qpstep=4 / ip_ratio=1.40 / aq=1:0.90
Default : Да
Forced : Нет

Аудио
Идентификатор : 2
Формат : AC-3
Формат/Информация : Audio Coding 3
Расширение режима : CM (complete main)
Параметр Endianness формата : Big
Идентификатор кодека : A_AC3
Продолжительность : 1 ч. 20 м.
Вид битрейта : Постоянный
Битрейт : 192 Кбит/сек
Каналы : 2 канала
Расположение каналов : Front: L R
Частота : 48,0 КГц
Частота кадров : 31,250 кадров/сек (1536 spf)
Метод сжатия : С потерями
Размер потока : 111 Мбайт (8%)
Default : Да
Forced : Нет

Меню
00:01:20.000 : :Scene 1. Desiree Cousteau
00:14:26.000 : :Scene 2. Nicole Scent
00:20:07.000 : :Scene 3. Jane Kelton
00:28:52.000 : :Scene 4. Veronica Hart
00:37:53.000 : :Scene 5. Veronica Hart
00:42:30.000 : :Scene 6. Nicole Scent, Veronica Hart
00:50:10.000 : :Scene 7. Candida Royalle, Veronica Hart
01:02:14.000 : :Scene 8. Veronica Hart
01:12:32.000 : :Scene 9. Candida Royalle
http://www.iafd.com/title.rme/title=Delicious/year=1981/delicious.htm

Scene 1. Desiree Cousteau, Aaron Stuart
Scene 2. Nicole Scent, Jerry Butler
Scene 3. Jane Kelton, George Payne
Scene 4. Veronica Hart, Aaron Stuart
Scene 5. Veronica Hart, Jerry Butler
Scene 6. Nicole Scent, Veronica Hart, Jerry Butler
Scene 7. Candida Royalle, Veronica Hart
Scene 8. Veronica Hart, Michael Gaunt, R. Bolla, Ron Jeremy
Scene 9. Candida Royalle, Aaron Stuart
[url]...848427[/url]
Трекер:  [ 15-Янв-2016 15:00 ]

Размер .torrent файла 15 KB


Размер: 1.42 GB
Хэш (hash) релиза: 83f45a3c9741e8477b761826b69b7b7b1125dd12
Подписка на обновления:

Еще никто не оставлял запись к записи скачать торрент Delicious Восхитительная . Будь первым!

!Обратная связь
//main.js show_panel