Статистика раздачи
Размер:  2 GB   |    Зарегистрирован:  1 год 10 месяцев   |    .torrent скачан:  13 раз   |   

Пиры будут получены при скачивании

 

Скачать порно 2040 / 2040 через торрент бесплатно :: UnionPron.org

 
 
Автор Сообщение

Sakura

avatar Sakura


2040 / 2040

Год производства: 2009 г.
Страна: USA
Жанр: Feature
Продолжительность: 03:17:52 [Фильм 02:47:22 + финал отдельными файлами 00:30:30]
Язык: Русский (Профессиональный двухголосый). Финальная сцена без перевода.

Режиссер: Brad Armstrong
Студия: Wicked Pictures

В ролях: Alektra Blue, Alexis Texas, Janet Mason, Jayden Jaymes, Jessica Drake, Kayla Carrera, Kaylani Lei, Kirsten Price, Mikayla Mendez, Tory Lane, Brad Armstrong, Eric Masterson, Jerry, Marcus London, Mick Blue, Randy Spears, Tommy Gunn

Описание: Год 2040. Порно бизнес прошел ряд значительных изменений. Теперь в порно снимаются секс-дроиды. Люди больше не снимаются в кино для взрослых, разве что только за редким исключением. МРА-5, известная под именем Мира (Алектра Блю) – прототип анобота. Она должна сняться в сексуальной сцене с человеком по имени Риан (Ренди Спирс). Съемки получились невероятно горячими, все удивлены, насколько Мира правдоподобна и искренна в своих эмоциях. Не меньше удивлен Риан – анабот способен чувствовать! Между ними вспыхивает страсть, они увлечены своими чувствами, запретными для остальных. Риан не может насладиться свежестью ощущений, дарящих ему аноботом, Мира – новизной чувств, которые она никогда не испытывала раньше. Но есть человек и не один, который хочет разлучить эту странную парочку. Причина в том, что их странный союз вредит порно бизнесу. От создателя МРА-5, желающего растиражировать удачную модель анобота до директоров и продюсеров, жаждущих увидеть звезду Миру в своих фильмах. Ее одну! Но программное обеспечение Миры вдруг дает сбой и только время покажет, насколько близка она была к созданиям из плоти и крови…

Доп. информация: Полная версия: фильм + 4 варианта концовки (оставил как в исходнике - не стал ничего объединять).
Общий размер (учитывая продолжительность фильма) подгонял под стандарт рекомендованный на рутрекере 2.73Gb-2.94Gb. В правилах порнолаба таких рекомендаций я не нашёл.

[url=...1617237]DVD9[/url]

Качество видео: DVDRip-AVC
Формат видео: MKV
Видео: AVC | 720x480 (853x480) | 16:9 | 23,976 кадра/сек | 1636 Кбит/сек | 0.197
Аудио: AC-3 | 48,0 КГц | стерео | 192 Кбит/сек
Полное имя : E:\2040 (2009)\2040 (2009).mkv
Формат : Matroska
Версия формата : Version 2
Размер файла : 2,18 Гбайт
Продолжительность : 2 ч. 47 м.
Общий поток : 1865 Кбит/сек
Дата кодирования : UTC 2016-01-03 11:34:55
Программа кодирования : mkvmerge v7.9.0 (''Birds'') 32bit
Библиотека кодирования : libebml v1.3.1 + libmatroska v1.4.2
Attachments : poster.jpg

Видео
Идентификатор : 1
Формат : AVC
Формат/Информация : Advanced Video Codec
Профиль формата : High@L3.1
Параметр CABAC формата : Да
Параметр ReFrames формата : 8 кадров
Идентификатор кодека : V_MPEG4/ISO/AVC
Продолжительность : 2 ч. 47 м.
Битрейт : 1636 Кбит/сек
Ширина : 720 пикселей
Высота : 480 пикселей
Соотношение сторон : 16:9
Режим частоты кадров : Постоянный
Частота кадров : 23,976 (24000/1001) кадра/сек
Цветовое пространство : YUV
Субдискретизация насыщенности : 4:2:0
Битовая глубина : 8 бит
Тип развёртки : Прогрессивная
Бит/(Пиксели*Кадры) : 0.197
Размер потока : 1,91 Гбайт (88%)
Библиотека кодирования : x264 core 148 r2638 7599210
Настройки программы : cabac=1 / ref=8 / deblock=1:0:0 / analyse=0x3:0x113 / me=umh / subme=9 / psy=1 / psy_rd=1.00:0.20 / mixed_ref=1 / me_range=24 / chroma_me=1 / trellis=2 / 8x8dct=1 / cqm=0 / deadzone=21,11 / fast_pskip=1 / chroma_qp_offset=-3 / threads=4 / lookahead_threads=1 / sliced_threads=0 / nr=0 / decimate=0 / interlaced=0 / bluray_compat=0 / constrained_intra=0 / bframes=5 / b_pyramid=2 / b_adapt=2 / b_bias=0 / direct=1 / weightb=1 / open_gop=0 / weightp=2 / keyint=250 / keyint_min=23 / scenecut=40 / intra_refresh=0 / rc=crf / mbtree=0 / crf=18.0 / qcomp=0.70 / qpmin=0 / qpmax=69 / qpstep=4 / ip_ratio=1.40 / pb_ratio=1.30 / aq=1:1.00
Язык : English
Default : Нет
Forced : Нет

Аудио
Идентификатор : 2
Формат : AC-3
Формат/Информация : Audio Coding 3
Расширение режима : CM (complete main)
Параметр Endianness формата : Big
Идентификатор кодека : A_AC3
Продолжительность : 2 ч. 47 м.
Вид битрейта : Постоянный
Битрейт : 192 Кбит/сек
Каналы : 2 канала
Расположение каналов : Front: L R
Частота : 48,0 КГц
Частота кадров : 31,250 кадров/сек (1536 spf)
Метод сжатия : С потерями
Размер потока : 230 Мбайт (10%)
Default : Да
Forced : Нет
http://www.iafd.com/title.rme/title=2040/year=2009/2040.htm

Scene 1. Alexis Texas, Randy Spears
Scene 2. Alektra Blue, Randy Spears
Scene 3. Kirsten Price, Eric Masterson
Scene 4. Jessica Drake, Kaylani Lei, Brad Armstrong
Scene 5. Mikayla Mendez, Jerry, Mick Blue
Scene 6. Jessica Drake, Marcus London
Scene 7. Alektra Blue, Girls, Jayden Jaymes, Jessica Drake, Kayla Carrera, Kirsten Price, Mikayla Mendez, Tory Lane, Brad Armstrong, Eric Masterson, Guys, Randy Spears, Rocco Reed, T.J. Cummings
Scene 8. Alektra Blue, Brad Armstrong
Scene 9. Alektra Blue, Bill Bailey, Tommy Gunn
AVN Awards, 2010
Nominee: Best All-Girl Three-Way Sex Scene
Nominee: Best Art Direction
Nominee: Best Director: Feature, Brad Armstrong
Nominee: Best Couples Sex Scene
[url]...1732313[/url]
[url]...1248192[/url]
[url]...1104302[/url]
[url]...1109449[/url]
[url]...1080530[/url]
Трекер:  [ 13-Янв-2016 04:00 ]

Размер .torrent файла 14 KB


Размер: 2 GB
Хэш (hash) релиза: 3d40fc00030a5db3c52676198901091681d5ae26
Подписка на обновления:

Еще никто не оставлял запись к записи скачать торрент 2040 2040 . Будь первым!

!Обратная связь
//main.js show_panel