Статистика раздачи
Размер:  1.06 GB   |    Зарегистрирован:  1 год   |    .torrent скачан:  13 раз   |   

Пиры будут получены при скачивании

 

Скачать порно Feticismo / Fetisch - Das Geheimnis der Lust / Fetichisme / Фетиш - тайные желания через торрент бесплатно :: UnionPron.org

 
 
Автор Сообщение

Sakura

avatar Sakura


Feticismo | Fetisch - Das Geheimnis der Lust | Fetichisme | Фетиш - тайные желания

[url=...1287695] [/url]
Год производства: 2000 г.
Страна: Germany | Германия
Жанр: Feature
Продолжительность: 01:52:37
Язык: Итальянский | Italian

Режиссер: Melissa Barth
Студия: FM Video

В ролях: Brigitte, Christoph Clark, David Perry, [url=...1223842]Eva Mercedes[/url], Franco Roccaforte, [url=...1536769]La Venere Bianca[/url], [url=...1287695]Laura Angel[/url], [url=...1856068]Luana Borgia[/url], [url=...1299184]Maria Bellucci[/url], Mike Foster, Paul Kreese, Robert Ribot, Zenza Raggi, Soriana Canali

Описание: Какой та индеец забрёл в Секс Шоп. Начал смотреть всякие чёрные самотыки и фантазировать буйной игрой воображения. Затем иму попалсо на глаза и под руку журнал Мурзилко Фитишист. Купил индеец этот журнал, припёр его до хаты и начал снова фантазии фантазировать, то правой - то левой. Даже мумию игипетскую разбудили и отодрали в две коряги - от как нада в Ибипте то атдыхать. А вы всё туда тока за побухать и понырять с ластами гоняите.

Scene Breakdowns:
Scene 1. [url=...1536769]La Venere Bianca[/url], Franco Roccaforte
Scene 2. [url=...1856068]Luana Borgia[/url], Christoph Clark
Scene 3. [url=...1223842]Eva Mercedes[/url], Paul Kreese
Scene 4. [url=...1287695]Laura Angel[/url], David Perry, Zenza Raggi
Scene 5. [url=...1299184]Maria Bellucci[/url], Mike Foster
Scene 6. Soriana Canali, Robert Ribot
Scene 7. Brigitte, Franco Roccaforte
General
Format : AVI
Format/Info : Audio Video Interleave
Format profile : OpenDML
File size : 1.06 GiB
Duration : 4h 45mn
Overall bit rate : 531 Kbps
Writing application : Lavf52.61.0
Video
Format : MPEG-4 Visual
Format profile : Simple@L3
Format settings, BVOP : No
Format settings, QPel : No
Format settings, GMC : No warppoints
Format settings, Matrix : Default (H.263)
Codec ID : XVID
Codec ID/Hint : XviD
Duration : 4h 45mn
Bit rate : 474 Kbps
Width : 640 pixels
Height : 480 pixels
Display aspect ratio : 4/3
Frame rate : 25.000 fps
Resolution : 24 bits
Colorimetry : 4:2:0
Scan type : Progressive
Bits/(Pixel*Frame) : 0.062
Stream size : 966 MiB (89%)
Writing library : XviD 1.2.1 (UTC 2008-12-04)
Audio
Format : MPEG Audio
Format version : Version 1
Format profile : Layer 3
Codec ID : 55
Codec ID/Hint : MP3
Duration : 1h 52mn
Bit rate mode : Constant
Bit rate : 128 Kbps
Channel(s) : 2 channels
Sampling rate : 44.1 KHz
Resolution : 16 bits
Stream size : 103 MiB (10%)
Alignment : Aligned on interleaves
Interleave, duration : 26 ms (0.65 video frame)
Interleave, preload duration : 104 ms
Writing library : LAME3.97
Качество видео: DVDRip
Формат видео: AVI
Видео: MPEG4, XviD, 640x480 (4:3), 25.000 fps, 113 Kbps (0.015 bit/pixel)
Аудио: MP3, 44.1 KHz, 2 ch, 128 Kbps, CBR
[url=...1239873]Feticismo (683 MB)[/url]
Трекер:  [ 13-Янв-2016 02:30 ]

Размер .torrent файла 11 KB


Размер: 1.06 GB
Хэш (hash) релиза: 9f72447087c1d815491d84a9cbbe14b5393a27a2
Подписка на обновления:

Еще никто не оставлял запись к записи скачать торрент Feticismo Fetisch - Das Geheimnis der Lust . Будь первым!

!Обратная связь
//main.js show_panel