Статистика раздачи
Размер:  1.69 GB   |    Зарегистрирован:  1 год 5 месяцев   |    .torrent скачан:  34 раза   |   

Пиры будут получены при скачивании

 

Скачать порно Suzie Superstar 2 / Сьюзи Суперзвезда 2 , Cal-Vista) через торрент бесплатно :: UnionPron.org

 
 
Автор Сообщение

Sakura

avatar Sakura


Suzie Superstar 2 / Сьюзи Суперзвезда 2

Год производства: 1985 г.
Страна: USA
Жанр: Feature, Classic
Продолжительность: 01:22:08 + бонус 20:18
Язык: Английский

Режиссер: Gary Graver (Robert McCallum)
Студия: Cal-Vista

В ролях: Traci Lords, Laurie Smith, Ginger Lynn, April May, Beverly Bliss, Gina Carrera, Heather Wayne, Jessica Wylde, Pamela Jennings, Joey Silvera, John Leslie, Ron Jeremy

Описание: Музыкальный продюсер подыскивает претенденток на мировую славу. Главные требования - привлекательная внешность и вызывающее поведение. После прослушивания на яхте решение принято. Сочная Трейси Лордс станет новой суперзвездой!

Доп. информация: Есть бонусная сцена с Трейси. Звук и видео в бонусной сцене не пережимал. Характеристики в скринлисте.

Исходник [url=...1969598]DVD5[/url]
Спасибо - Wonders

Качество видео: DVDRip-AVC
Формат видео: MKV
Видео: х264 | 688x528 | 23,976 кадра/сек | 2331 Кбит/сек| 0.268
Аудио: AC-3 | 48,0 КГц | стерео | 224 Кбит/сек
Полное имя : E:\Suzie Superstar 2 (1985)\Suzie Superstar 2 (1985).mkv
Формат : Matroska
Версия формата : Version 2
Размер файла : 1,50 Гбайт
Продолжительность : 1 ч. 22 м.
Общий поток : 2607 Кбит/сек
Дата кодирования : UTC 2016-01-08 08:12:01
Программа кодирования : mkvmerge v7.9.0 (''Birds'') 32bit
Библиотека кодирования : libebml v1.3.1 + libmatroska v1.4.2
Attachments : poster.JPG

Видео
Идентификатор : 1
Формат : AVC
Формат/Информация : Advanced Video Codec
Профиль формата : High@L4.1
Параметр CABAC формата : Да
Параметр ReFrames формата : 8 кадров
Идентификатор кодека : V_MPEG4/ISO/AVC
Продолжительность : 1 ч. 22 м.
Битрейт : 2331 Кбит/сек
Ширина : 688 пикселей
Высота : 528 пикселей
Соотношение сторон : 4:3
Режим частоты кадров : Постоянный
Частота кадров : 23,976 (23976/1000) кадра/сек
Цветовое пространство : YUV
Субдискретизация насыщенности : 4:2:0
Битовая глубина : 8 бит
Тип развёртки : Прогрессивная
Бит/(Пиксели*Кадры) : 0.268
Размер потока : 1,34 Гбайт (89%)
Библиотека кодирования : x264 core 148 r2638 7599210
Настройки программы : cabac=1 / ref=8 / deblock=1:0:0 / analyse=0x3:0x113 / me=umh / subme=9 / psy=1 / psy_rd=0.75:0.05 / mixed_ref=1 / me_range=16 / chroma_me=1 / trellis=2 / 8x8dct=1 / cqm=0 / deadzone=21,11 / fast_pskip=1 / chroma_qp_offset=-3 / threads=4 / lookahead_threads=1 / sliced_threads=0 / nr=0 / decimate=0 / interlaced=0 / bluray_compat=0 / constrained_intra=0 / bframes=5 / b_pyramid=2 / b_adapt=2 / b_bias=0 / direct=1 / weightb=1 / open_gop=0 / weightp=2 / keyint=250 / keyint_min=23 / scenecut=40 / intra_refresh=0 / rc_lookahead=60 / rc=crf / mbtree=1 / crf=18.0 / qcomp=0.70 / qpmin=0 / qpmax=69 / qpstep=4 / vbv_maxrate=50000 / vbv_bufsize=62500 / crf_max=0.0 / nal_hrd=none / filler=0 / ip_ratio=1.40 / aq=1:0.90
Язык : English
Default : Да
Forced : Нет
Цветовой диапазон : Limited
Коэффициенты матрицы : BT.601

Аудио
Идентификатор : 2
Формат : AC-3
Формат/Информация : Audio Coding 3
Расширение режима : CM (complete main)
Параметр Endianness формата : Big
Идентификатор кодека : A_AC3
Продолжительность : 1 ч. 22 м.
Вид битрейта : Постоянный
Битрейт : 224 Кбит/сек
Каналы : 2 канала
Расположение каналов : Front: L R
Частота : 48,0 КГц
Частота кадров : 31,250 кадров/сек (1536 spf)
Метод сжатия : С потерями
Размер потока : 132 Мбайт (9%)
Default : Да
Forced : Нет
http://www.iafd.com/title.rme/title=Suzie+Superstar+2/year=1985/suzie-superstar-2.htm

Scene 1. Heather Wayne, John Leslie
Scene 2. Laurie Smith, Traci Lords
Scene 3. Traci Lords, John Leslie
Scene 4. Beverly Bliss, Jessica Wylde, John Leslie
Scene 5. Gina Carrera, Pamela Jennings, Joey Silvera
Scene 6. Traci Lords, Joey Silvera
Scene 7. April May, Ron Jeremy
Scene 8. Ginger Lynn, John Leslie
[url]...789294[/url]
Трекер:  [ 09-Янв-2016 14:00 ]

Размер .torrent файла 17 KB


Размер: 1.69 GB
Хэш (hash) релиза: 90c267d9c2652ffcac7167743d184c7e0ed2375f
Подписка на обновления:

Еще никто не оставлял запись к записи скачать торрент Suzie Superstar 2 Сьюзи Суперзвезда 2 . Будь первым!

!Обратная связь
//main.js show_panel