Статистика раздачи
Размер:  1.36 GB   |    Зарегистрирован:  1 год 2 месяца   |    .torrent скачан:  51 раз   |   

Пиры будут получены при скачивании

 

Скачать порно L'amour / Любовь через торрент бесплатно :: UnionPron.org

 
 
Автор Сообщение

Sakura

avatar Sakura


L''amour / Любовь

Год производства: 1984 г.
Страна: USA
Жанр: Feature, Straight, Classic
Продолжительность: 01:25:17
Язык: Английский

Режиссер: Jack Remy / Marga Aulbach
Студия: Caballero Home Video

В ролях: Angel, Ginger Lynn, Kay Parker, Nikki Randall, Shanna McCullough, Harry Reems, Ivory Essex, Jamie Gillis, Tom Byron, Bill White

Описание: "L''amour" порно из ушедшей эпохи. Фильм с бюджетом в несколько тысяч долларов, стал одним из последних событий " золотого века " порно.

[url=...1992010]DVD5[/url]

Качество видео: DVDRip-AVC
Формат видео: MKV
Видео: AVC | 704x536 | 4:3 | 23,976 кадра/сек | 0.226
Аудио: AC-3 | 48,0 КГц | стерео | 192 Кбит/сек
Формат : Matroska
Версия формата : Version 2
Размер файла : 1,36 Гбайт
Продолжительность : 1 ч. 25 м.
Общий поток : 2284 Кбит/сек
Дата кодирования : UTC 2015-12-29 12:39:55
Программа кодирования : mkvmerge v7.9.0 (''Birds'') 32bit
Библиотека кодирования : libebml v1.3.1 + libmatroska v1.4.2
Attachements : poster.jpg

Видео
Идентификатор : 1
Формат : AVC
Формат/Информация : Advanced Video Codec
Профиль формата : High@L3.1
Параметр CABAC формата : Да
Параметр ReFrames формата : 8 кадров
Идентификатор кодека : V_MPEG4/ISO/AVC
Продолжительность : 1 ч. 25 м.
Битрейт : 2046 Кбит/сек
Ширина : 704 пикселя
Высота : 536 пикселей
Соотношение сторон : 4:3
Режим частоты кадров : Постоянный
Частота кадров : 23,976 (24000/1001) кадра/сек
Цветовое пространство : YUV
Субдискретизация насыщенности : 4:2:0
Битовая глубина : 8 бит
Тип развёртки : Прогрессивная
Бит/(Пиксели*Кадры) : 0.226
Размер потока : 1,22 Гбайт (90%)
Библиотека кодирования : x264 core 148 r2638 7599210
Настройки программы : cabac=1 / ref=8 / deblock=1:0:0 / analyse=0x3:0x113 / me=umh / subme=9 / psy=1 / psy_rd=0.90:0.10 / mixed_ref=1 / me_range=24 / chroma_me=1 / trellis=2 / 8x8dct=1 / cqm=0 / deadzone=21,11 / fast_pskip=1 / chroma_qp_offset=-3 / threads=4 / lookahead_threads=1 / sliced_threads=0 / nr=0 / decimate=0 / interlaced=0 / bluray_compat=0 / constrained_intra=0 / bframes=3 / b_pyramid=2 / b_adapt=2 / b_bias=0 / direct=1 / weightb=1 / open_gop=0 / weightp=2 / keyint=250 / keyint_min=23 / scenecut=40 / intra_refresh=0 / rc=crf / mbtree=0 / crf=18.0 / qcomp=0.70 / qpmin=0 / qpmax=69 / qpstep=4 / ip_ratio=1.40 / pb_ratio=1.30 / aq=1:1.00
Язык : English
Default : Нет
Forced : Нет

Аудио
Идентификатор : 2
Формат : AC-3
Формат/Информация : Audio Coding 3
Профиль формата : Dolby Digital
Расширение режима : CM (complete main)
Параметр Endianness формата : Big
Идентификатор кодека : A_AC3
Продолжительность : 1 ч. 25 м.
Вид битрейта : Постоянный
Битрейт : 192 Кбит/сек
Каналы : 2 канала
Расположение каналов : Front: L R
Частота : 48,0 КГц
Частота кадров : 31,250 кадров/сек (1536 spf)
Метод сжатия : С потерями
Размер потока : 117 Мбайт (8%)
Язык : English
Default : Нет
Forced : Нет
Scene 1. Ginger Lynn, Jamie Gillis
Scene 2. Angel
Scene 3. Angel, Harry Reems
Scene 4. Kay Parker, Harry Reems
Scene 5. Shanna McCullough, Tom Byron
Scene 6. Kay Parker, Jamie Gillis
Scene 7. Angel, Kay Parker
Scene 8. Nikki Randall, Jamie Gillis
Scene 9. Harry Reems, Ivory Essex
Scene 10. Shanna McCullough, Tom Byron
Scene 11. Angel, Tom Byron
Scene 12. Shanna McCullough, Harry Reems
Scene 13. Angel, Jamie Gillis
[url]...778971[/url]
Трекер:  [ 30-Дек-2015 14:00 ]

Размер .torrent файла 14 KB


Размер: 1.36 GB
Хэш (hash) релиза: 8785bfb81ee7a0e56a303b85ec8e84a41d144e43
Подписка на обновления:

Еще никто не оставлял запись к записи скачать торрент L'amour Любовь . Будь первым!

!Обратная связь
//main.js show_panel