Статистика раздачи
Размер:  2 GB   |    Зарегистрирован:  1 год 6 месяцев   |    .torrent скачан:  84 раза   |   

Пиры будут получены при скачивании

 

Скачать порно Angel Core: Tenshi-tachi no Sumika / Angel Core / Суть ангелов через торрент бесплатно :: UnionPron.org

 
 
Автор Сообщение

Sakura

avatar Sakura


エンゼル・コア ~天使たちの住処~ | Angel Core: Tenshi-tachi no Sumika | Angel Core | Суть ангелов


Год выпуска: 2003
Страна: Япония
Жанр: anal, angel, bondage, group sex, oral, torture, war
Продолжительность: >2 эп. по 30 мин.
Субтитры:

Английские

Французские

Немецкие

Цензура: Отсутствует
Режиссёр: Misumi Ran
Студия: Adult Source Media
Описание:
One war is over, and another war is about to start...

A young military officer, Captain Ralph Maskenval, was sent to Nortland, to fulfill a mission, which was to keep a close watch over the Angels. The Angels were coerced into believing they needed to have sex to nurture the "Angel Core" inside. Ralph starts to feel awkward about his mission. Then Ralph learns the reason behind the Angels'' sex-craved behavior. Ralph will have to make a big decision...
Информационные ссылки: AniDB || MAL || World Art || ХентайМаг
Исходник: DVD-5
Видео: MPEG2 | NTSC | 4x3 | 720x480 | 8000 Kbps
Аудио JAP: AC-3 | 48000Hz | 224 Kbps | 2ch
01. Volume 1
02. Volume 2
General
Complete name : H:\VIDEO_TS\VTS_01_1.VOB
Format : MPEG-PS
File size : 1 024 MiB
Duration : 17mn 3s
Overall bit rate : 8 395 Kbps

Video
ID : 224 (0xE0)
Format : MPEG Video
Format version : Version 2
Format profile : Main@Main
Format settings, BVOP : Yes
Format settings, Matrix : Custom
Duration : 17mn 3s
Bit rate : 8 000 Kbps
Width : 720 pixels
Height : 480 pixels
Display aspect ratio : 4:3
Frame rate : 29.970 fps
Standard : NTSC
Color space : YUV
Chroma subsampling : 4:2:0
Bit depth : 8 bits
Scan type : Interlaced
Scan order : Top Field First
Compression mode : Lossy
Bits/(Pixel*Frame) : 0.772
Stream size : 976 MiB (95%)

Audio
ID : 189 (0xBD)-128 (0x80)
Format : AC-3
Format/Info : Audio Coding 3
Mode extension : CM (complete main)
Muxing mode : DVD-Video
Duration : 17mn 3s
Bit rate mode : Constant
Bit rate : 224 Kbps
Channel(s) : 2 channels
Channel positions : Front: L R
Sampling rate : 48.0 KHz
Bit depth : 16 bits
Compression mode : Lossy
Delay relative to video : -67ms
Stream size : 27.3 MiB (3%)

Text #1
ID : 189 (0xBD)-32 (0x20)
Format : RLE
Format/Info : Run-length encoding
Muxing mode : DVD-Video

Text #2
ID : 189 (0xBD)-33 (0x21)
Format : RLE
Format/Info : Run-length encoding
Muxing mode : DVD-Video

Text #3
ID : 189 (0xBD)-34 (0x22)
Format : RLE
Format/Info : Run-length encoding
Muxing mode : DVD-Video


Исходник: DVD-5
Видео: MPEG2 | NTSC | 4x3 | 720x480 | 7500 Kbps
Аудио JAP: AC-3 | 48000Hz | 224 Kbps | 2ch
General
Complete name : H:\VIDEO_TS\VTS_01_1.VOB
Format : MPEG-PS
File size : 1 024 MiB
Duration : 18mn 10s
Overall bit rate : 7 878 Kbps

Video
ID : 224 (0xE0)
Format : MPEG Video
Format version : Version 2
Format profile : Main@Main
Format settings, BVOP : Yes
Format settings, Matrix : Custom
Format settings, GOP : M=3, N=15
Duration : 18mn 10s
Bit rate : 7 500 Kbps
Width : 720 pixels
Height : 480 pixels
Display aspect ratio : 4:3
Frame rate : 29.970 fps
Standard : NTSC
Color space : YUV
Chroma subsampling : 4:2:0
Bit depth : 8 bits
Scan type : Interlaced
Scan order : Top Field First
Compression mode : Lossy
Bits/(Pixel*Frame) : 0.724
Stream size : 975 MiB (95%)

Audio
ID : 189 (0xBD)-128 (0x80)
Format : AC-3
Format/Info : Audio Coding 3
Mode extension : CM (complete main)
Muxing mode : DVD-Video
Duration : 18mn 10s
Bit rate mode : Constant
Bit rate : 224 Kbps
Channel(s) : 2 channels
Channel positions : Front: L R
Sampling rate : 48.0 KHz
Bit depth : 16 bits
Compression mode : Lossy
Delay relative to video : -67ms
Stream size : 29.1 MiB (3%)

Text #1
ID : 189 (0xBD)-32 (0x20)
Format : RLE
Format/Info : Run-length encoding
Muxing mode : DVD-Video

Text #2
ID : 189 (0xBD)-33 (0x21)
Format : RLE
Format/Info : Run-length encoding
Muxing mode : DVD-Video

Text #3
ID : 189 (0xBD)-34 (0x22)
Format : RLE
Format/Info : Run-length encoding
Muxing mode : DVD-Video
[url=...1005692#23]Чем воспроизводить образ диска формата *.ISO[/url]
Трекер:  [ 26-Дек-2015 01:30 ]

Размер .torrent файла 33 KB


Размер: 2 GB
Хэш (hash) релиза: cc1210a7fdfdd4a20644e9f85715cc1da7fa3232
Подписка на обновления:

Торренты, похожие на Angel Core: Tenshi-tachi no Sumika Angel Core скачать торрент

Форум Название Автор Размер S L Добавлен
Хентай: основной подраздел / Hentai: main subsection ·· Angel Core: Tenshi-tachi no Sumika / Angel Core / Суть ангелов (Misumi Ran, Rune) (ep. 1-2 of 2) [uncen] [2003 г. Angel, BDSM, Group sex, Anal sex, Oral sex, DVDRip] [jap / eng / ger / fra / rus] Sakura 628590954599 MB 0 0 1435176318

00:05

25-Июн-15

Еще никто не оставлял запись к записи скачать торрент Angel Core: Tenshi-tachi no Sumika Angel Core . Будь первым!

!Обратная связь
//main.js show_panel