Статистика раздачи
Размер:  1.29 GB   |    Зарегистрирован:  1 год 7 месяцев   |    .torrent скачан:  18 раз   |   

Пиры будут получены при скачивании

 

Скачать порно Voices / Голоса через торрент бесплатно :: UnionPron.org

 
 
Автор Сообщение

Sakura

avatar Sakura


Voices / Голоса

Год производства: 2001 г.
Страна: USA
Жанр: Straight, Feature, Anal
Продолжительность: 01:28:10
Язык: Английский

Режиссер: Nic Cramer
Студия: Pleasure Productions

В ролях: Silvia Saint, Heather Lynn, April Flowers, Alex Metro, Dillon Day, Jon Dough, Jay Ashley

Описание: Прекрасная Сильвия работает в больнице мед.сестрой. В больницу к ней поступает пациент после автокатастрофы. Он начинает слышать голоса, которые рождают фантазии с Сильвией, но каждой фантазии в конце концов суждено воплотиться в реальность.

Доп. информация: http://www.iafd.com/title.rme/title=Voices/year=2001/voices.htm

[url=...1939872]DVD5[/url]

Качество видео: DVDRip-AVC
Формат видео: MP4
Видео: x264 | 704x320 | 29,970 кадров/сек | 1900 Кбит/сек | 0.281
Аудио: AC-3 | 48,0 КГц | стерео | 192 Кбит/сек
Scene 1. Silvia Saint, Jon Dough
Scene 2. April Flowers, Jay Ashley
Scene 3. Heather Lyn, Alec Metro
Scene 4. Silvia Saint, Dillon Day
Scene 5. Silvia Saint, Alec Metro
Формат : MPEG-4
Профиль формата : Base Media
Идентификатор кодека : isom (isom/avc1)
Размер файла : 1,29 Гбайт
Продолжительность : 1 ч. 28 м.
Общий поток : 2095 Кбит/сек
Дата кодирования : UTC 2015-12-24 01:27:00
Дата пометки : UTC 2015-12-24 01:27:00

Видео
Идентификатор : 1
Формат : AVC
Формат/Информация : Advanced Video Codec
Профиль формата : High@L3
Параметр CABAC формата : Да
Параметр ReFrames формата : 8 кадров
Идентификатор кодека : avc1
Идентификатор кодека/Информация : Advanced Video Coding
Продолжительность : 1 ч. 28 м.
Битрейт : 1900 Кбит/сек
Максимальный битрейт : 5297 Кбит/сек
Ширина : 704 пикселя
Высота : 320 пикселей
Соотношение сторон : 2,2:1
Режим частоты кадров : Постоянный
Частота кадров : 29,970 (30000/1001) кадров/сек
Цветовое пространство : YUV
Субдискретизация насыщенности : 4:2:0
Битовая глубина : 8 бит
Тип развёртки : Прогрессивная
Бит/(Пиксели*Кадры) : 0.281
Размер потока : 1,17 Гбайт (91%)
Библиотека кодирования : x264 core 148 r2638 7599210
Настройки программы : cabac=1 / ref=8 / deblock=1:0:0 / analyse=0x3:0x113 / me=umh / subme=9 / psy=1 / psy_rd=1.00:0.15 / mixed_ref=1 / me_range=24 / chroma_me=1 / trellis=2 / 8x8dct=1 / cqm=0 / deadzone=21,11 / fast_pskip=1 / chroma_qp_offset=-3 / threads=4 / lookahead_threads=1 / sliced_threads=0 / nr=0 / decimate=0 / interlaced=0 / bluray_compat=0 / constrained_intra=0 / bframes=5 / b_pyramid=2 / b_adapt=2 / b_bias=0 / direct=1 / weightb=1 / open_gop=0 / weightp=2 / keyint=250 / keyint_min=25 / scenecut=40 / intra_refresh=0 / rc=crf / mbtree=0 / crf=17.0 / qcomp=0.75 / qpmin=0 / qpmax=69 / qpstep=4 / ip_ratio=1.40 / pb_ratio=1.30 / aq=1:1.00
Дата кодирования : UTC 2015-12-24 01:27:00
Дата пометки : UTC 2015-12-24 01:27:25

Аудио
Идентификатор : 2
Формат : AC-3
Формат/Информация : Audio Coding 3
Расширение режима : CM (complete main)
Параметр Endianness формата : Big
Идентификатор кодека : ac-3
Продолжительность : 1 ч. 28 м.
Вид битрейта : Постоянный
Битрейт : 192 Кбит/сек
Каналы : 2 канала
Расположение каналов : Front: L R
Частота : 48,0 КГц
Частота кадров : 31,250 кадров/сек (1536 spf)
Битовая глубина : 16 бит
Метод сжатия : С потерями
Размер потока : 121 Мбайт (9%)
Дата кодирования : UTC 2015-12-24 01:27:20
Дата пометки : UTC 2015-12-24 01:27:25
[url]...1333112[/url]
[url]...1106896[/url]
Трекер:  [ 24-Дек-2015 14:00 ]

Размер .torrent файла 13 KB


Размер: 1.29 GB
Хэш (hash) релиза: d1dfe80689fcd606f905583d62e77dfe91a40aa2
Подписка на обновления:

Еще никто не оставлял запись к записи скачать торрент Voices Голоса . Будь первым!

!Обратная связь
//main.js show_panel