Статистика раздачи
Размер:  1.46 GB   |    Зарегистрирован:  1 год 10 месяцев   |    .torrent скачан:  39 раз   |   

Пиры будут получены при скачивании

 

Скачать порно Kinky Business / Weekend Girls / Странное Дело через торрент бесплатно :: UnionPron.org

 
 
Автор Сообщение

Sakura

avatar Sakura


Kinky Business / Weekend Girls / Странное Дело

Год производства: 1984 г.
Страна: USA
Жанр: Feature, Classic
Продолжительность: 01:14:40 + 00:12:58
Язык: Английский

Режиссер: Jerry Ross
Студия: Dreamland

В ролях: Traci Lords, Crystal Breeze, Ginger Lynn, Laurie Smith, Lois Ayres, Misty Regan, Raven, Renee Tiffany, Tanya Lawson, Jerry Butler, Steve Drake, Tom Byron, Fast Eddie, Ron Jeremy

Описание: Молодой человек остаётся в одиночестве в доме его родителей. Его старший брат решает, что это идеальное время для Тома, чтобы потерять свою невинность, и он приглашает проститутку познакомить его с миром секса. Вскоре Том, вместе со своими друзьями, превратил дом своих родителей в процветающий бордель.

Доп. информация: http://www.iafd.com/title.rme/title=Kinky+Business+1/year=1984/kinky-business-1.htm



[url=...1970588]DVD5[/url]

Качество видео: DVDRip-AVC
Формат видео: MP4
Видео: х264 | 688x536| 25 кадров/сек | 2164 Кбит/сек | 0.235
Аудио: AC3 | 48,0 КГц | 2 канала | 224 Кбит/сек
Полное имя : H:\Странное дело (Kinky Business. Weekend Girls. 1984)\Kinky Business (Weekend Girls. 1984).mp4
Формат : MPEG-4
Профиль формата : Base Media
Идентификатор кодека : isom
Размер файла : 1,25 Гбайт
Продолжительность : 1 ч. 14 м.
Общий поток : 2393 Кбит/сек
Название фильма : Kinky Business (1984)
Жанр : Adult
Дата кодирования : UTC 2015-12-01 10:16:49
Дата пометки : UTC 2015-12-01 14:57:01
Программа кодирования : Yamb 2.1.0.0 [http://yamb.unite-video.com]
Обложка : Yes

Видео
Идентификатор : 1
Формат : AVC
Формат/Информация : Advanced Video Codec
Профиль формата : High@L3.1
Параметр CABAC формата : Да
Параметр ReFrames формата : 8 кадров
Идентификатор кодека : avc1
Идентификатор кодека/Информация : Advanced Video Coding
Продолжительность : 1 ч. 14 м.
Битрейт : 2164 Кбит/сек
Максимальный битрейт : 4596 Кбит/сек
Ширина : 688 пикселей
Высота : 536 пикселей
Соотношение сторон : 1,284
Режим частоты кадров : Постоянный
Частота кадров : 25,000 кадров/сек
Цветовое пространство : YUV
Субдискретизация насыщенности : 4:2:0
Битовая глубина : 8 бит
Тип развёртки : Прогрессивная
Бит/(Пиксели*Кадры) : 0.235
Размер потока : 1,13 Гбайт (90%)
Библиотека кодирования : x264 core 148 r2597 e86f3a1
Настройки программы : cabac=1 / ref=8 / deblock=1:0:0 / analyse=0x3:0x113 / me=umh / subme=9 / psy=1 / psy_rd=1.00:0.15 / mixed_ref=1 / me_range=16 / chroma_me=1 / trellis=2 / 8x8dct=1 / cqm=0 / deadzone=21,11 / fast_pskip=1 / chroma_qp_offset=-3 / threads=4 / lookahead_threads=1 / sliced_threads=0 / nr=0 / decimate=0 / interlaced=0 / bluray_compat=0 / constrained_intra=0 / bframes=5 / b_pyramid=2 / b_adapt=2 / b_bias=0 / direct=1 / weightb=1 / open_gop=0 / weightp=2 / keyint=250 / keyint_min=25 / scenecut=40 / intra_refresh=0 / rc=crf / mbtree=0 / crf=18.0 / qcomp=0.75 / qpmin=0 / qpmax=69 / qpstep=4 / ip_ratio=1.40 / pb_ratio=1.30 / aq=1:1.00
Дата кодирования : UTC 2015-12-01 02:07:58
Дата пометки : UTC 2015-12-01 10:17:14
Цветовой диапазон : Limited
Коэффициенты матрицы : BT.601

Аудио
Идентификатор : 2
Формат : AC-3
Формат/Информация : Audio Coding 3
Расширение режима : CM (complete main)
Параметр Endianness формата : Big
Идентификатор кодека : ac-3
Продолжительность : 1 ч. 14 м.
Вид битрейта : Постоянный
Битрейт : 224 Кбит/сек
Каналы : 2 канала
Расположение каналов : Front: L R
Частота : 48,0 КГц
Битовая глубина : 16 бит
Метод сжатия : С потерями
Размер потока : 120 Мбайт (9%)
Дата кодирования : UTC 2015-12-01 10:17:06
Дата пометки : UTC 2015-12-01 10:17:14
Scene 1. Laurie Smith, Tom Byron
Scene 2. Tanya Lawson, Tom Byron
Scene 3. Crystal Breeze, Renee Tiffany
Scene 4. Renee Tiffany, Jerry Butler
Scene 5. Misty Regan
Scene 6. Raven, Steve Drake
Scene 7. Ginger Lynn, Tom Byron
Scene 8. Traci Lords, Tom Byron
Scene 9. Lois Ayres, Jerry Butler
AVN Awards, 1985
Winner: Best Couples Sex Scene: Film, Ginger Lynn, Tom Byron
[url]...1987411[/url]
[url]...958844[/url]
Трекер:  [ 17-Дек-2015 11:00 ]

Размер .torrent файла 15 KB


Размер: 1.46 GB
Хэш (hash) релиза: 0f66b52ae0be918d9a8e8c8c93ccba3b8b9a1db6
Подписка на обновления:

Еще никто не оставлял запись к записи скачать торрент Kinky Business Weekend Girls . Будь первым!

!Обратная связь
//main.js show_panel