Статистика раздачи
Размер:  2 GB   |    Зарегистрирован:  1 год 6 месяцев   |    .torrent скачан:  150 раз   |   

Пиры будут получены при скачивании

 

Скачать порно Masha World через торрент бесплатно :: UnionPron.org

 
 
Автор Сообщение

Sakura

avatar Sakura


Masha World (19 роликов. Дополнение к основной раздаче)

Жанр: Teen, Oral, Classic, Russian
Описание: 19 роликов не вошедшие в основную раздачу [url]...519760[/url] Студии MashaWorld.com, а также Best18girls.com и др. Плюс 13-ть минутных клипов тоже не представленных на трекере и не найденных в сети роликов. (в отдельной папке). Может кто отыщет... .
За названия роликов не ручаюсь, что было возможно найти в базах, исправил на оригинальные, с некоторыми беда, уже названий и не найти.
Качество роликов примерно такое же, как и в основной раздаче, т.е. не супер-пупер.
Два ролика монтировал сам из разных кусков (помечены "монтаж"). На сегодня найти что-то презентабельное с ней уже большая проблема.
Формат : MPEG-4
Профиль формата : Base Media
Идентификатор кодека : isom
Размер файла : 8,35 Мбайт
Продолжительность : 5 м. 22 с.
Общий поток : 217 Кбит/сек
Дата кодирования : UTC 1970-01-01 00:00:00
Дата пометки : UTC 1970-01-01 00:00:00
Программа кодирования : Lavf52.111.0

Видео
Идентификатор : 1
Формат : AVC
Формат/Информация : Advanced Video Codec
Профиль формата : Baseline@L2.1
Параметр CABAC формата : Нет
Параметр ReFrames формата : 3 кадра
Идентификатор кодека : avc1
Идентификатор кодека/Информация : Advanced Video Coding
Продолжительность : 5 м. 22 с.
Битрейт : 149 Кбит/сек
Ширина : 384 пикселя
Высота : 288 пикселей
Соотношение сторон : 4:3
Режим частоты кадров : Постоянный
Частота кадров : 25,000 кадров/сек
Цветовое пространство : YUV
Субдискретизация насыщенности : 4:2:0
Битовая глубина : 8 бит
Тип развёртки : Прогрессивная
Бит/(Пиксели*Кадры) : 0.054
Размер потока : 5,72 Мбайт (69%)
Библиотека кодирования : x264 core 125
Настройки программы : cabac=0 / ref=3 / deblock=1:0:0 / analyse=0x1:0x111 / me=hex / subme=7 / psy=1 / psy_rd=1.00:0.00 / mixed_ref=1 / me_range=16 / chroma_me=1 / trellis=1 / 8x8dct=0 / cqm=0 / deadzone=21,11 / fast_pskip=1 / chroma_qp_offset=-2 / threads=36 / lookahead_threads=4 / sliced_threads=0 / nr=0 / decimate=1 / interlaced=0 / bluray_compat=0 / constrained_intra=0 / bframes=0 / weightp=0 / keyint=250 / keyint_min=25 / scenecut=40 / intra_refresh=0 / rc_lookahead=40 / rc=crf / mbtree=1 / crf=28.0 / qcomp=0.60 / qpmin=0 / qpmax=69 / qpstep=4 / ip_ratio=1.40 / aq=1:1.00
Дата кодирования : UTC 1970-01-01 00:00:00
Дата пометки : UTC 1970-01-01 00:00:00

Аудио
Идентификатор : 2
Формат : AAC
Формат/Информация : Advanced Audio Codec
Профиль формата : LC
Идентификатор кодека : 40
Продолжительность : 5 м. 22 с.
Вид битрейта : Постоянный
Битрейт : 64,0 Кбит/сек
Каналы : 2 канала
Расположение каналов : Front: L R
Частота : 44,1 КГц
Метод сжатия : С потерями
Размер потока : 2,46 Мбайт (29%)
Дата кодирования : UTC 1970-01-01 00:00:00
Дата пометки : UTC 1970-01-01 00:00:00
Формат : MPEG-4
Профиль формата : Base Media
Идентификатор кодека : isom
Размер файла : 283 Мбайт
Продолжительность : 9 м. 44 с.
Режим общего битрейта : Переменный
Общий поток : 4065 Кбит/сек
Дата кодирования : UTC 1970-01-01 00:00:00
Дата пометки : UTC 1970-01-01 00:00:00

Видео
Идентификатор : 1
Формат : AVC
Формат/Информация : Advanced Video Codec
Профиль формата : High@L3
Параметр CABAC формата : Да
Параметр ReFrames формата : 3 кадра
Идентификатор кодека : avc1
Идентификатор кодека/Информация : Advanced Video Coding
Продолжительность : 9 м. 44 с.
Битрейт : 3996 Кбит/сек
Ширина : 640 пикселей
Высота : 480 пикселей
Соотношение сторон : 1,222
Режим частоты кадров : Постоянный
Частота кадров : 25,000 кадров/сек
Цветовое пространство : YUV
Субдискретизация насыщенности : 4:2:0
Битовая глубина : 8 бит
Тип развёртки : Прогрессивная
Бит/(Пиксели*Кадры) : 0.520
Размер потока : 278 Мбайт (98%)
Дата кодирования : UTC 1970-01-01 00:00:00
Дата пометки : UTC 1970-01-01 00:00:00

Аудио
Идентификатор : 2
Формат : AAC
Формат/Информация : Advanced Audio Codec
Профиль формата : LC
Идентификатор кодека : 40
Продолжительность : 9 м. 44 с.
Вид битрейта : Переменный
Битрейт : 63,9 Кбит/сек
Каналы : 2 канала
Расположение каналов : Front: L R
Частота : 44,1 КГц
Метод сжатия : С потерями
Размер потока : 4,45 Мбайт (2%)
Дата кодирования : UTC 1970-01-01 00:00:00
Дата пометки : UTC 1970-01-01 00:00:00
Формат : MPEG-4
Профиль формата : Base Media
Идентификатор кодека : isom
Размер файла : 36,1 Мбайт
Продолжительность : 10 м.
Режим общего битрейта : Переменный
Общий поток : 494 Кбит/сек
Дата кодирования : UTC 1970-01-01 00:00:00
Дата пометки : UTC 1970-01-01 00:00:00
Программа кодирования : Lavf52.61.0

Видео
Идентификатор : 1
Формат : MPEG-4 Visual
Профиль формата : Simple@L3
Параметр BVOP формата : Нет
Параметр QPel формата : Нет
Параметр GMC формата : Без точки перехода
Параметр матрицы формата : Default (H.263)
Идентификатор кодека : 20
Продолжительность : 10 м.
Битрейт : 426 Кбит/сек
Ширина : 728 пикселей
Высота : 408 пикселей
Соотношение сторон : 16:9
Режим частоты кадров : Переменный
Частота кадров : 24,904 кадров/сек
Частота кадров в оригинале : 29,970 кадров/сек
Минимальная частота кадров : 14,985 кадров/сек
Максимальная частота кадров : 29,970 кадров/сек
Цветовое пространство : YUV
Субдискретизация насыщенности : 4:2:0
Битовая глубина : 8 бит
Тип развёртки : Прогрессивная
Метод сжатия : С потерями
Бит/(Пиксели*Кадры) : 0.058
Размер потока : 31,2 Мбайт (86%)
Библиотека кодирования : XviD 1.2.1 (UTC 2008-12-04)
Дата кодирования : UTC 1970-01-01 00:00:00
Дата пометки : UTC 1970-01-01 00:00:00

Аудио
Идентификатор : 2
Формат : AAC
Формат/Информация : Advanced Audio Codec
Профиль формата : LC
Идентификатор кодека : 40
Продолжительность : 10 м.
Вид битрейта : Переменный
Битрейт : 63,9 Кбит/сек
Каналы : 2 канала
Расположение каналов : Front: L R
Частота : 24,0 КГц
Метод сжатия : С потерями
Размер потока : 4,68 Мбайт (13%)
Дата кодирования : UTC 1970-01-01 00:00:00
Дата пометки : UTC 1970-01-01 00:00:00
Формат : MPEG-4
Профиль формата : Base Media
Идентификатор кодека : isom
Размер файла : 6,79 Мбайт
Продолжительность : 3 м. 1 с.
Общий поток : 314 Кбит/сек
Дата кодирования : UTC 1970-01-01 00:00:00
Дата пометки : UTC 1970-01-01 00:00:00
Программа кодирования : Lavf53.2.0

Видео
Идентификатор : 1
Формат : AVC
Формат/Информация : Advanced Video Codec
Профиль формата : Main@L2.1
Параметр CABAC формата : Да
Параметр ReFrames формата : 1 кадр
Идентификатор кодека : avc1
Идентификатор кодека/Информация : Advanced Video Coding
Продолжительность : 3 м. 1 с.
Битрейт : 251 Кбит/сек
Ширина : 480 пикселей
Высота : 352 пикселя
Соотношение сторон : 4:3
Соотношение сторон в оригинале : 4:3
Режим частоты кадров : Постоянный
Частота кадров : 25,000 кадров/сек
Цветовое пространство : YUV
Субдискретизация насыщенности : 4:2:0
Битовая глубина : 8 бит
Тип развёртки : Прогрессивная
Бит/(Пиксели*Кадры) : 0.060
Размер потока : 5,43 Мбайт (80%)
Библиотека кодирования : x264 core 115
Настройки программы : cabac=1 / ref=1 / deblock=1:0:0 / analyse=0x1:0x31 / me=hex / subme=5 / psy=1 / psy_rd=1.00:0.00 / mixed_ref=0 / me_range=16 / chroma_me=1 / trellis=0 / 8x8dct=0 / cqm=0 / deadzone=21,11 / fast_pskip=1 / chroma_qp_offset=0 / threads=24 / sliced_threads=0 / nr=0 / decimate=1 / interlaced=0 / bluray_compat=0 / constrained_intra=0 / bframes=0 / weightp=2 / keyint=250 / keyint_min=25 / scenecut=40 / intra_refresh=0 / rc_lookahead=40 / rc=crf / mbtree=1 / crf=24.0 / qcomp=0.60 / qpmin=0 / qpmax=69 / qpstep=4 / ip_ratio=1.41 / aq=1:1.00
Дата кодирования : UTC 1970-01-01 00:00:00
Дата пометки : UTC 1970-01-01 00:00:00

Аудио
Идентификатор : 2
Формат : AAC
Формат/Информация : Advanced Audio Codec
Профиль формата : LC
Идентификатор кодека : 40
Продолжительность : 3 м. 0 с.
Вид битрейта : Постоянный
Битрейт : 58,9 Кбит/сек
Каналы : 2 канала
Расположение каналов : Front: L R
Частота : 44,1 КГц
Метод сжатия : С потерями
Размер потока : 1,27 Мбайт (19%)
Дата кодирования : UTC 1970-01-01 00:00:00
Дата пометки : UTC 1970-01-01 00:00:00
Формат : Windows Media
Размер файла : 195 Мбайт
Продолжительность : 10 м.
Режим общего битрейта : Переменный
Общий поток : 2617 Кбит/сек
Максимальный общий битрейт : 3732 Кбит/сек
Дата кодирования : UTC 2008-09-08 09:22:46.640
SfOriginalFPS : 250000

Видео
Идентификатор : 2
Формат : VC-1
Профиль формата : MP@HL
Идентификатор кодека : WMV3
Идентификатор кодека/Информация : Windows Media Video 9
Идентификатор кодека/Подсказка : WMV3
Описание кодека : Windows Media Video 9 - Professional
Продолжительность : 10 м.
Вид битрейта : Переменный
Битрейт : 2537 Кбит/сек
Ширина : 852 пикселя
Высота : 480 пикселей
Соотношение сторон : 16:9
Частота кадров : 25,000 кадров/сек
Цветовое пространство : YUV
Субдискретизация насыщенности : 4:2:0
Битовая глубина : 8 бит
Тип развёртки : Прогрессивная
Метод сжатия : С потерями
Бит/(Пиксели*Кадры) : 0.248
Размер потока : 189 Мбайт (97%)
Язык : Russian

Аудио
Идентификатор : 1
Формат : WMA
Версия формата : Version 2
Идентификатор кодека : 161
Идентификатор кодека/Информация : Windows Media Audio
Описание кодека : Windows Media Audio 9.1 - 64 kbps, 44 kHz, stereo (A/V) 1-pass CBR
Продолжительность : 10 м.
Вид битрейта : Постоянный
Битрейт : 64,0 Кбит/сек
Каналы : 2 канала
Частота : 44,1 КГц
Битовая глубина : 16 бит
Размер потока : 4,78 Мбайт (2%)
Язык : Russian
Формат : MPEG-PS
Размер файла : 250 Мбайт
Продолжительность : 38 с.
Общий поток : 54,6 Мбит/сек
Библиотека кодирования : MPEG12_RT_BS_RF0

Видео
Идентификатор : 224 (0xE0)
Формат : MPEG Video
Версия формата : Version 1
Параметр BVOP формата : Да
Параметр матрицы формата : Выборочная
Параметр GOP формата : M=2, N=15
Продолжительность : 38 с.
Битрейт : 53,3 Мбит/сек
Максимальный битрейт : 2000 Кбит/сек
Ширина : 384 пикселя
Высота : 288 пикселей
Соотношение сторон : 1,422
Частота кадров : 25,000 кадров/сек
Цветовое пространство : YUV
Субдискретизация насыщенности : 4:2:0
Битовая глубина : 8 бит
Тип развёртки : Прогрессивная
Метод сжатия : С потерями
Бит/(Пиксели*Кадры) : 19.273
Временной код первого кадра : 00:00:00:00
Оригинал временного кода : Group of pictures header
Размер потока : 244 Мбайт (98%)
Библиотека кодирования : MPEG12_RT_BS_RF0

Аудио
Идентификатор : 192 (0xC0)
Формат : MPEG Audio
Версия формата : Version 1
Профиль формата : Layer 2
Продолжительность : 38 с.
Вид битрейта : Постоянный
Битрейт : 224 Кбит/сек
Каналы : 2 канала
Частота : 44,1 КГц
Метод сжатия : С потерями
Задержка видео : 265 мс.
Размер потока : 1,02 Мбайт (0%)
Формат : MPEG-PS
Размер файла : 194 Мбайт
Продолжительность : 51 с.
Общий поток : 31,8 Мбит/сек
Библиотека кодирования : MPEG12_RT_BS_RF0

Видео
Идентификатор : 224 (0xE0)
Формат : MPEG Video
Версия формата : Version 1
Параметр BVOP формата : Да
Параметр матрицы формата : Выборочная
Параметр GOP формата : M=2, N=15
Продолжительность : 51 с.
Битрейт : 31,0 Мбит/сек
Максимальный битрейт : 2000 Кбит/сек
Ширина : 384 пикселя
Высота : 288 пикселей
Соотношение сторон : 1,422
Частота кадров : 25,000 кадров/сек
Цветовое пространство : YUV
Субдискретизация насыщенности : 4:2:0
Битовая глубина : 8 бит
Тип развёртки : Прогрессивная
Метод сжатия : С потерями
Бит/(Пиксели*Кадры) : 11.204
Временной код первого кадра : 00:00:00:00
Оригинал временного кода : Group of pictures header
Размер потока : 188 Мбайт (97%)
Библиотека кодирования : MPEG12_RT_BS_RF0

Аудио
Идентификатор : 192 (0xC0)
Формат : MPEG Audio
Версия формата : Version 1
Профиль формата : Layer 2
Продолжительность : 50 с.
Вид битрейта : Постоянный
Битрейт : 224 Кбит/сек
Каналы : 2 канала
Частота : 44,1 КГц
Метод сжатия : С потерями
Задержка видео : 265 мс.
Размер потока : 1,35 Мбайт (1%)
Формат : MPEG-PS
Размер файла : 288 Мбайт
Продолжительность : 1 м. 59 с.
Режим общего битрейта : Переменный
Общий поток : 20,2 Мбит/сек

Видео
Идентификатор : 224 (0xE0)
Формат : MPEG Video
Версия формата : Version 1
Параметр BVOP формата : Да
Параметр матрицы формата : Выборочная
Параметр GOP формата : Variable
Продолжительность : 1 м. 59 с.
Вид битрейта : Переменный
Битрейт : 19,6 Мбит/сек
Максимальный битрейт : 2000 Кбит/сек
Ширина : 384 пикселя
Высота : 288 пикселей
Соотношение сторон : 1,422
Частота кадров : 25,000 кадров/сек
Цветовое пространство : YUV
Субдискретизация насыщенности : 4:2:0
Битовая глубина : 8 бит
Тип развёртки : Прогрессивная
Метод сжатия : С потерями
Бит/(Пиксели*Кадры) : 7.077
Временной код первого кадра : 00:00:00:00
Оригинал временного кода : Group of pictures header
Размер потока : 279 Мбайт (97%)

Аудио
Идентификатор : 192 (0xC0)
Формат : MPEG Audio
Версия формата : Version 1
Профиль формата : Layer 2
Продолжительность : 1 м. 58 с.
Вид битрейта : Постоянный
Битрейт : 224 Кбит/сек
Каналы : 2 канала
Частота : 44,1 КГц
Метод сжатия : С потерями
Задержка видео : 232 мс.
Размер потока : 3,17 Мбайт (1%)
Формат : MPEG-PS
Размер файла : 243 Мбайт
Продолжительность : 15 м.
Режим общего битрейта : Переменный
Общий поток : 2234 Кбит/сек

Видео
Идентификатор : 224 (0xE0)
Формат : MPEG Video
Версия формата : Version 1
Параметр BVOP формата : Да
Параметр матрицы формата : Выборочная
Параметр GOP формата : M=2, N=14
Продолжительность : 15 м.
Вид битрейта : Переменный
Битрейт : 1965 Кбит/сек
Максимальный битрейт : 2000 Кбит/сек
Ширина : 384 пикселя
Высота : 288 пикселей
Соотношение сторон : 1,422
Частота кадров : 25,000 кадров/сек
Цветовое пространство : YUV
Субдискретизация насыщенности : 4:2:0
Битовая глубина : 8 бит
Тип развёртки : Прогрессивная
Метод сжатия : С потерями
Бит/(Пиксели*Кадры) : 0.711
Временной код первого кадра : 00:00:00:00
Оригинал временного кода : Group of pictures header
GOP, открыто/закрыто : Открыто
Размер потока : 214 Мбайт (88%)

Аудио
Идентификатор : 192 (0xC0)
Формат : MPEG Audio
Версия формата : Version 1
Профиль формата : Layer 2
Продолжительность : 15 м.
Вид битрейта : Постоянный
Битрейт : 224 Кбит/сек
Каналы : 2 канала
Частота : 44,1 КГц
Метод сжатия : С потерями
Задержка видео : 232 мс.
Размер потока : 24,3 Мбайт (10%)
Формат : MPEG-PS
Размер файла : 284 Мбайт
Продолжительность : 51 с.
Общий поток : 46,0 Мбит/сек
Библиотека кодирования : MPEG12_RT_BS_RF0

Видео
Идентификатор : 224 (0xE0)
Формат : MPEG Video
Версия формата : Version 1
Параметр BVOP формата : Да
Параметр матрицы формата : Выборочная
Параметр GOP формата : M=2, N=15
Продолжительность : 51 с.
Битрейт : 44,8 Мбит/сек
Максимальный битрейт : 2000 Кбит/сек
Ширина : 384 пикселя
Высота : 288 пикселей
Соотношение сторон : 1,422
Частота кадров : 25,000 кадров/сек
Цветовое пространство : YUV
Субдискретизация насыщенности : 4:2:0
Битовая глубина : 8 бит
Тип развёртки : Прогрессивная
Метод сжатия : С потерями
Бит/(Пиксели*Кадры) : 16.221
Временной код первого кадра : 00:00:00:00
Оригинал временного кода : Group of pictures header
Размер потока : 277 Мбайт (98%)
Библиотека кодирования : MPEG12_RT_BS_RF0

Аудио
Идентификатор : 192 (0xC0)
Формат : MPEG Audio
Версия формата : Version 1
Профиль формата : Layer 2
Продолжительность : 51 с.
Вид битрейта : Постоянный
Битрейт : 224 Кбит/сек
Каналы : 2 канала
Частота : 44,1 КГц
Метод сжатия : С потерями
Задержка видео : 265 мс.
Размер потока : 1,37 Мбайт (0%)
Формат : MPEG-PS
Размер файла : 229 Мбайт
Продолжительность : 1 м. 11 с.
Общий поток : 27,0 Мбит/сек
Библиотека кодирования : MPEG12_RT_BS_RF0

Видео
Идентификатор : 224 (0xE0)
Формат : MPEG Video
Версия формата : Version 1
Параметр BVOP формата : Да
Параметр матрицы формата : Выборочная
Параметр GOP формата : M=2, N=15
Продолжительность : 1 м. 11 с.
Битрейт : 26,2 Мбит/сек
Максимальный битрейт : 2000 Кбит/сек
Ширина : 384 пикселя
Высота : 288 пикселей
Соотношение сторон : 1,422
Частота кадров : 25,000 кадров/сек
Цветовое пространство : YUV
Субдискретизация насыщенности : 4:2:0
Битовая глубина : 8 бит
Тип развёртки : Прогрессивная
Метод сжатия : С потерями
Бит/(Пиксели*Кадры) : 9.489
Временной код первого кадра : 00:00:00:00
Оригинал временного кода : Group of pictures header
Размер потока : 223 Мбайт (97%)
Библиотека кодирования : MPEG12_RT_BS_RF0

Аудио
Идентификатор : 192 (0xC0)
Формат : MPEG Audio
Версия формата : Version 1
Профиль формата : Layer 2
Продолжительность : 1 м. 10 с.
Вид битрейта : Постоянный
Битрейт : 224 Кбит/сек
Каналы : 2 канала
Частота : 44,1 КГц
Метод сжатия : С потерями
Задержка видео : 265 мс.
Размер потока : 1,89 Мбайт (1%)
Формат : MPEG-PS
Размер файла : 155 Мбайт
Продолжительность : 20 с.
Общий поток : 63,5 Мбит/сек
Библиотека кодирования : MPEG12_RT_BS_RF0

Видео
Идентификатор : 224 (0xE0)
Формат : MPEG Video
Версия формата : Version 1
Параметр BVOP формата : Да
Параметр матрицы формата : Выборочная
Параметр GOP формата : M=2, N=15
Продолжительность : 20 с.
Битрейт : 62,0 Мбит/сек
Максимальный битрейт : 2000 Кбит/сек
Ширина : 384 пикселя
Высота : 288 пикселей
Соотношение сторон : 1,422
Частота кадров : 25,000 кадров/сек
Цветовое пространство : YUV
Субдискретизация насыщенности : 4:2:0
Битовая глубина : 8 бит
Тип развёртки : Прогрессивная
Метод сжатия : С потерями
Бит/(Пиксели*Кадры) : 22.431
Временной код первого кадра : 00:00:00:00
Оригинал временного кода : Group of pictures header
Размер потока : 152 Мбайт (98%)
Библиотека кодирования : MPEG12_RT_BS_RF0

Аудио
Идентификатор : 192 (0xC0)
Формат : MPEG Audio
Версия формата : Version 1
Профиль формата : Layer 2
Продолжительность : 20 с.
Вид битрейта : Постоянный
Битрейт : 224 Кбит/сек
Каналы : 2 канала
Частота : 44,1 КГц
Метод сжатия : С потерями
Задержка видео : 265 мс.
Размер потока : 554 Кбайт (0%)
Формат : AVI
Формат/Информация : Audio Video Interleave
Размер файла : 82,5 Мбайт
Продолжительность : 6 м. 27 с.
Общий поток : 1787 Кбит/сек

Видео
Идентификатор : 0
Формат : MPEG-4 Visual
Профиль формата : Advanced Simple@L5
Параметр BVOP формата : 2
Параметр QPel формата : Нет
Параметр GMC формата : Без точки перехода
Параметр матрицы формата : Default (H.263)
Идентификатор кодека : XVID
Идентификатор кодека/Подсказка : XviD
Продолжительность : 6 м. 23 с.
Битрейт : 1662 Кбит/сек
Ширина : 792 пикселя
Высота : 576 пикселей
Соотношение сторон : 1,375
Частота кадров : 30,000 кадров/сек
Цветовое пространство : YUV
Субдискретизация насыщенности : 4:2:0
Битовая глубина : 8 бит
Тип развёртки : Прогрессивная
Метод сжатия : С потерями
Бит/(Пиксели*Кадры) : 0.121
Размер потока : 76,1 Мбайт (92%)
Библиотека кодирования : XviD 63

Аудио
Идентификатор : 1
Формат : MPEG Audio
Версия формата : Version 1
Профиль формата : Layer 3
Режим : Joint stereo
Расширение режима : MS Stereo
Идентификатор кодека : 55
Идентификатор кодека/Подсказка : MP3
Продолжительность : 6 м. 27 с.
Продолжительность оригинала : 6 м. 23 с.
Вид битрейта : Постоянный
Битрейт : 128 Кбит/сек
Каналы : 2 канала
Частота : 44,1 КГц
Метод сжатия : С потерями
Размер потока : 5,86 Мбайт (7%)
Выравнивание : Соединение по промежуткам
Продолжительность промежутка : 33 мс. (1,00 видеокадр)
Библиотека кодирования : LAME3.98
Формат : Flash Video
Размер файла : 89,9 Мбайт
Продолжительность : 9 м. 23 с.
Общий поток : 1338 Кбит/сек

Видео
Формат : Sorenson Spark
Идентификатор кодека : 2
Продолжительность : 9 м. 23 с.
Битрейт : 1172 Кбит/сек
Ширина : 528 пикселей
Высота : 400 пикселей
Соотношение сторон : 4:3
Режим частоты кадров : Постоянный
Частота кадров : 25,000 кадров/сек
Битовая глубина : 8 бит
Бит/(Пиксели*Кадры) : 0.222
Размер потока : 78,8 Мбайт (88%)

Аудио
Формат : MPEG Audio
Версия формата : Version 1
Профиль формата : Layer 3
Режим : Joint stereo
Расширение режима : MS Stereo
Идентификатор кодека : 2
Идентификатор кодека/Подсказка : MP3
Продолжительность : 9 м. 23 с.
Вид битрейта : Постоянный
Битрейт : 128 Кбит/сек
Каналы : 2 канала
Частота : 44,1 КГц
Метод сжатия : С потерями
Размер потока : 8,60 Мбайт (10%)
Библиотека кодирования : LAME3.97
Формат : Windows Media
Размер файла : 434 Мбайт
Продолжительность : 27 м.
Режим общего битрейта : Переменный
Общий поток : 2223 Кбит/сек
Максимальный общий битрейт : 4342 Кбит/сек
Дата кодирования : UTC 2006-01-13 23:55:40.550
SfOriginalFPS : 250000

Видео
Идентификатор : 2
Формат : VC-1
Профиль формата : MP@HL
Идентификатор кодека : WMV3
Идентификатор кодека/Информация : Windows Media Video 9
Идентификатор кодека/Подсказка : WMV3
Описание кодека : Windows Media Video 9 - Professional
Продолжительность : 27 м.
Вид битрейта : Переменный
Битрейт : 2097 Кбит/сек
Ширина : 852 пикселя
Высота : 480 пикселей
Соотношение сторон : 16:9
Частота кадров : 25,000 кадров/сек
Цветовое пространство : YUV
Субдискретизация насыщенности : 4:2:0
Битовая глубина : 8 бит
Тип развёртки : Прогрессивная
Метод сжатия : С потерями
Бит/(Пиксели*Кадры) : 0.205
Размер потока : 409 Мбайт (94%)

Аудио
Идентификатор : 1
Формат : WMA
Версия формата : Version 2
Идентификатор кодека : 161
Идентификатор кодека/Информация : Windows Media Audio
Описание кодека : Windows Media Audio 9.1 - 128 kbps, 44 kHz, stereo (A/V) 1-pass CBR
Продолжительность : 27 м.
Вид битрейта : Постоянный
Битрейт : 128 Кбит/сек
Каналы : 2 канала
Частота : 44,1 КГц
Битовая глубина : 16 бит
Размер потока : 25,0 Мбайт (6%)
Формат : MPEG-PS
Размер файла : 118 Мбайт
Продолжительность : 6 м. 48 с.
Общий поток : 2427 Кбит/сек

Видео
Идентификатор : 224 (0xE0)
Формат : MPEG Video
Версия формата : Version 1
Параметр BVOP формата : Да
Параметр матрицы формата : Выборочная
Параметр GOP формата : M=3, N=18
Продолжительность : 6 м. 47 с.
Битрейт : 2200 Кбит/сек
Ширина : 720 пикселей
Высота : 576 пикселей
Соотношение сторон : 4:3
Частота кадров : 25,000 кадров/сек
Стандарт вещания : PAL
Цветовое пространство : YUV
Субдискретизация насыщенности : 4:2:0
Битовая глубина : 8 бит
Тип развёртки : Прогрессивная
Метод сжатия : С потерями
Бит/(Пиксели*Кадры) : 0.212
Временной код первого кадра : 00:00:00:01
Оригинал временного кода : Group of pictures header
GOP, открыто/закрыто : Открыто
Размер потока : 106 Мбайт (90%)

Аудио
Идентификатор : 192 (0xC0)
Формат : MPEG Audio
Версия формата : Version 1
Профиль формата : Layer 2
Продолжительность : 6 м. 48 с.
Вид битрейта : Постоянный
Битрейт : 192 Кбит/сек
Каналы : 2 канала
Частота : 48,0 КГц
Метод сжатия : С потерями
Задержка видео : -132 мс.
Размер потока : 9,34 Мбайт (8%)
Формат : Windows Media
Размер файла : 54,0 Мбайт
Продолжительность : 11 м.
Режим общего битрейта : Переменный
Общий поток : 669 Кбит/сек
Максимальный общий битрейт : 1405 Кбит/сек
Название фильма : SJARC5599
Дата кодирования : UTC 2012-01-23 09:13:35.468

Видео
Идентификатор : 2
Формат : VC-1
Профиль формата : MP@ML
Идентификатор кодека : WMV3
Идентификатор кодека/Информация : Windows Media Video 9
Идентификатор кодека/Подсказка : WMV3
Описание кодека : Windows Media Video 9
Продолжительность : 11 м.
Вид битрейта : Переменный
Битрейт : 599 Кбит/сек
Ширина : 640 пикселей
Высота : 360 пикселей
Соотношение сторон : 16:9
Частота кадров : 15,000 кадров/сек
Цветовое пространство : YUV
Субдискретизация насыщенности : 4:2:0
Битовая глубина : 8 бит
Тип развёртки : Прогрессивная
Метод сжатия : С потерями
Бит/(Пиксели*Кадры) : 0.173
Размер потока : 48,4 Мбайт (90%)
Язык : English (US)

Аудио
Идентификатор : 1
Формат : WMA
Версия формата : Version 2
Идентификатор кодека : 161
Идентификатор кодека/Информация : Windows Media Audio
Описание кодека : Windows Media Audio 9.2 - 48 kbps, 44 kHz, mono (A/V) 1-pass CBR
Продолжительность : 11 м.
Вид битрейта : Постоянный
Битрейт : 48,0 Кбит/сек
Каналы : 1 канал
Частота : 44,1 КГц
Битовая глубина : 16 бит
Размер потока : 3,88 Мбайт (7%)
Язык : English (US)
Формат : MPEG-PS
Размер файла : 151 Мбайт
Продолжительность : 8 м. 47 с.
Общий поток : 2405 Кбит/сек
Библиотека кодирования : encoded by TMPGEnc (ver. 2.510.49.157)

Видео
Идентификатор : 224 (0xE0)
Формат : MPEG Video
Версия формата : Version 1
Параметр BVOP формата : Да
Параметр матрицы формата : Выборочная
Параметр GOP формата : Variable
Продолжительность : 8 м. 47 с.
Битрейт : 2165 Кбит/сек
Максимальный битрейт : 2200 Кбит/сек
Ширина : 720 пикселей
Высота : 576 пикселей
Соотношение сторон : 4:3
Частота кадров : 25,000 кадров/сек
Стандарт вещания : PAL
Цветовое пространство : YUV
Субдискретизация насыщенности : 4:2:0
Битовая глубина : 8 бит
Тип развёртки : Прогрессивная
Метод сжатия : С потерями
Бит/(Пиксели*Кадры) : 0.209
Временной код первого кадра : 00:00:00:00
Оригинал временного кода : Group of pictures header
Размер потока : 136 Мбайт (90%)
Библиотека кодирования : TMPGEnc 2.510.49.157

Аудио
Идентификатор : 192 (0xC0)
Формат : MPEG Audio
Версия формата : Version 1
Профиль формата : Layer 2
Продолжительность : 8 м. 47 с.
Вид битрейта : Постоянный
Битрейт : 192 Кбит/сек
Каналы : 2 канала
Частота : 48,0 КГц
Метод сжатия : С потерями
Размер потока : 12,1 Мбайт (8%)
Формат : MPEG-PS
Размер файла : 171 Мбайт
Продолжительность : 14 м.
Режим общего битрейта : Переменный
Общий поток : 1706 Кбит/сек

Видео
Идентификатор : 224 (0xE0)
Формат : MPEG Video
Версия формата : Version 1
Параметр BVOP формата : Да
Параметр матрицы формата : По умолчанию
Параметр GOP формата : M=3, N=12
Продолжительность : 14 м.
Вид битрейта : Переменный
Битрейт : 1448 Кбит/сек
Ширина : 384 пикселя
Высота : 288 пикселей
Соотношение сторон : 4:3
Частота кадров : 29,970 кадров/сек
Цветовое пространство : YUV
Субдискретизация насыщенности : 4:2:0
Битовая глубина : 8 бит
Тип развёртки : Прогрессивная
Метод сжатия : С потерями
Бит/(Пиксели*Кадры) : 0.437
Временной код первого кадра : 00:00:00:00
Оригинал временного кода : Group of pictures header
GOP, открыто/закрыто : Открыто
Размер потока : 145 Мбайт (85%)

Аудио
Идентификатор : 192 (0xC0)
Формат : MPEG Audio
Версия формата : Version 1
Профиль формата : Layer 2
Продолжительность : 13 м.
Вид битрейта : Постоянный
Битрейт : 224 Кбит/сек
Каналы : 2 канала
Частота : 44,1 КГц
Метод сжатия : С потерями
Задержка видео : 459 мс.
Размер потока : 22,3 Мбайт (13%)
Трекер:  [ 13-Дек-2015 03:30 ]

Размер .torrent файла 21 KB


Размер: 2 GB
Хэш (hash) релиза: ad7643cb3af01f41602a4e1450714c9e5e5b1191
Подписка на обновления:

Еще никто не оставлял запись к записи скачать торрент Masha World . Будь первым!

!Обратная связь
//main.js show_panel