Статистика раздачи
Размер:  1.32 GB   |    Зарегистрирован:  1 год 1 месяц   |    .torrent скачан:  21 раз   |   

Пиры будут получены при скачивании

 

Скачать порно All American Girls 4: Heartthrobs Heart Throbs / Все американские девушки 4: Сердцеедки [Aurora, Gina Valentino, Jade Nichols, Laurie Smith, Raven, Susan Hart, Tess Fe через торрент бесплатно :: UnionPron.org

 
 
Автор Сообщение

Sakura

avatar Sakura


All American Girls 4: Heartthrobs \ Heart Throbs \ Все американские девушки 4: Сердцеедки

Год производства: 1985 г.
Страна: USA
Жанр: Feature, Straight
Продолжительность: 01:19:26
Язык: Английский

Режиссер: G.W. Hunter
Студия: Praxis Films (Caballero Home Video)

В ролях: Aurora, Gina Valentino, Jade Nichols, Laurie Smith, Raven, Susan Hart, Tess Ferre, Greg Rome, Harry Reems, James Miles, Ron Jeremy, Sasha Gabor

Описание: Сотрудники косметической компании отправляются в тропический рай на Гавайях для рекламы своей продукции. "Шокирующая розовая" губная помада откроет для них мир горячего безудержного секса!

Доп. информация: http://www.iafd.com/title.rme/title=Heart+Throbs/year=1985/heart-throbs.htm

[url=...1999253]DVD5[/url]

Качество видео: DVDRip-AVC
Формат видео: MP4
Видео: x264 | 696x536 | 23,976 кадра/сек | 2176 Кбит/сек | 0.243
Аудио: AC-3 | 48,0 КГц | 2 канала | 192 Кбит/сек
Полное имя : H:\All American Girls 4 - Heartthrobs (Heart Throbs. 1985).mp4
Формат : MPEG-4
Профиль формата : Base Media
Идентификатор кодека : isom (isom/avc1)
Размер файла : 1,32 Гбайт
Продолжительность : 1 ч. 19 м.
Общий поток : 2371 Кбит/сек
Дата кодирования : UTC 2015-12-10 01:03:39
Дата пометки : UTC 2015-12-10 01:03:39

Видео
Идентификатор : 1
Формат : AVC
Формат/Информация : Advanced Video Codec
Профиль формата : High@L3.1
Параметр CABAC формата : Да
Параметр ReFrames формата : 8 кадров
Идентификатор кодека : avc1
Идентификатор кодека/Информация : Advanced Video Coding
Продолжительность : 1 ч. 19 м.
Битрейт : 2176 Кбит/сек
Максимальный битрейт : 7698 Кбит/сек
Ширина : 696 пикселей
Высота : 536 пикселей
Соотношение сторон : 1,299
Режим частоты кадров : Постоянный
Частота кадров : 23,976 (24000/1001) кадра/сек
Цветовое пространство : YUV
Субдискретизация насыщенности : 4:2:0
Битовая глубина : 8 бит
Тип развёртки : Прогрессивная
Бит/(Пиксели*Кадры) : 0.243
Размер потока : 1,21 Гбайт (92%)
Библиотека кодирования : x264 core 148 r2597 e86f3a1
Настройки программы : cabac=1 / ref=8 / deblock=1:0:0 / analyse=0x3:0x113 / me=umh / subme=9 / psy=1 / psy_rd=0.90:0.05 / mixed_ref=1 / me_range=24 / chroma_me=1 / trellis=2 / 8x8dct=1 / cqm=0 / deadzone=21,11 / fast_pskip=1 / chroma_qp_offset=-3 / threads=4 / lookahead_threads=1 / sliced_threads=0 / nr=0 / decimate=0 / interlaced=0 / bluray_compat=0 / constrained_intra=0 / bframes=5 / b_pyramid=2 / b_adapt=2 / b_bias=0 / direct=1 / weightb=1 / open_gop=0 / weightp=2 / keyint=250 / keyint_min=23 / scenecut=40 / intra_refresh=0 / rc=crf / mbtree=0 / crf=18.0 / qcomp=0.80 / qpmin=0 / qpmax=69 / qpstep=4 / ip_ratio=1.40 / pb_ratio=1.30 / aq=1:1.00
Дата кодирования : UTC 2015-12-10 01:03:39
Дата пометки : UTC 2015-12-10 01:04:04

Аудио
Идентификатор : 2
Формат : AC-3
Формат/Информация : Audio Coding 3
Расширение режима : CM (complete main)
Параметр Endianness формата : Big
Идентификатор кодека : ac-3
Продолжительность : 1 ч. 19 м.
Вид битрейта : Постоянный
Битрейт : 192 Кбит/сек
Каналы : 2 канала
Расположение каналов : Front: L R
Частота : 48,0 КГц
Частота кадров : 31,250 кадров/сек (1536 spf)
Битовая глубина : 16 бит
Метод сжатия : С потерями
Размер потока : 109 Мбайт (8%)
Дата кодирования : UTC 2015-12-10 01:04:00
Дата пометки : UTC 2015-12-10 01:04:04
Scene 1. Gina Valentino, Ron Jeremy
Scene 2. Jade Nichols, Susan Hart
Scene 3. Gina Valentino
Scene 4. Jade Nichols, Susan Hart, Ron Jeremy
Scene 5. Gina Valentino, James Miles
Scene 6. Aurora, Ron Jeremy
Scene 7. Laurie Smith, Ron Jeremy
Scene 8. Raven, Sasha Gabor
Scene 9. Tess Ferre, Greg Rome
Scene 10. Tess Ferre, Harry Reems
[url]...1176585[/url]
Трекер:  [ 10-Дек-2015 13:30 ]

Размер .torrent файла 13 KB


Размер: 1.32 GB
Хэш (hash) релиза: 5acc48432fa49f1895de2dad4a782093ce6c19ba
Подписка на обновления:

Еще никто не оставлял запись к записи скачать торрент All American Girls 4: Heartthrobs Heart Throbs Все американские девушки 4: Сердцеедки . Будь первым!

!Обратная связь
//main.js show_panel