Статистика раздачи
Размер:  2 GB   |    Зарегистрирован:  1 год 2 месяца   |    .torrent скачан:  55 раз   |   

Пиры будут получены при скачивании

 

Скачать порно Taboo 5 / Табу 5 через торрент бесплатно :: UnionPron.org

 
 
Автор Сообщение

Sakura

avatar Sakura


Taboo 5 / Taboo 5: The Secret / Табу 5

Год производства: 1986 г.
Страна: USA
Жанр: classic, feature, incest, mature
Продолжительность: 01:54:21
Язык: Английский

Режиссер: Kirdy Stevens
Студия: Standard Video

В ролях: Amber Lynn, Jamie Gillis, Joey Silvera, Karen Summer, Billy Dee, Kevin James, Buck Adams, Colleen Brennan, Porsche Lynn

Описание: Роскошная Colleen Brennan исполняет роль Mary, женщины ведущей двойной образ жизни: днем - мадонны, ночью - соблазнительницы, вызывающей в своем сыне запрещенные желания. Jamie Gillis возвращается в роли Dr. Lodge. Его кровосмесительный любовный роман со своей дочерью Robin (Taboo 4) заканчивается, так как у него начинается новый роман с другой дочерью. Пустота в его сердце заполняется красивейшей и ненасытной Amber Lynn (одна из лучших ее ролей). Её тело источает абсолютную сексуальность. Karen Summer исполняет роль Naomi, дочери Dr. Lodge и новой жены горячего, многообещающего режиссера, скрывающего свою развратность от своей новой невесты, но долго ли он сможет продолжать?
Kirdy Stevens мастерски демонстрирует упадочный мир кровосмесительных секретов, как ни какой другой фильм для взрослых.

Доп. информация: Без перевода. Качество видео хуже, чем в предыдущих частях.

[url=...1649402]DVD9[/url]

Качество видео: DVDRip-AVC
Формат видео: MP4
Видео: x264, 688x528, 23,976 кадра/сек, 2334 Кбит/сек, 0.268
Аудио: AC-3, 48,0 КГц, 2 канала, 192 Кбит/сек
Полное имя : H:\Taboo 5 (1986).mp4
Формат : MPEG-4
Профиль формата : Base Media
Идентификатор кодека : isom
Размер файла : 2,02 Гбайт
Продолжительность : 1 ч. 54 м.
Общий поток : 2528 Кбит/сек
Дата кодирования : UTC 2015-10-16 16:03:05
Дата пометки : UTC 2015-10-16 16:03:05

Видео
Идентификатор : 1
Формат : AVC
Формат/Информация : Advanced Video Codec
Профиль формата : High@L3.1
Параметр CABAC формата : Да
Параметр ReFrames формата : 8 кадров
Идентификатор кодека : avc1
Идентификатор кодека/Информация : Advanced Video Coding
Продолжительность : 1 ч. 54 м.
Битрейт : 2334 Кбит/сек
Максимальный битрейт : 4776 Кбит/сек
Ширина : 688 пикселей
Высота : 528 пикселей
Соотношение сторон : 4:3
Режим частоты кадров : Постоянный
Частота кадров : 23,976 кадра/сек
Цветовое пространство : YUV
Субдискретизация насыщенности : 4:2:0
Битовая глубина : 8 бит
Тип развёртки : Прогрессивная
Бит/(Пиксели*Кадры) : 0.268
Размер потока : 1,86 Гбайт (92%)
Библиотека кодирования : x264 core 148 r2597 e86f3a1
Настройки программы : cabac=1 / ref=8 / deblock=1:0:0 / analyse=0x3:0x113 / me=umh / subme=9 / psy=1 / psy_rd=1.00:0.00 / mixed_ref=1 / me_range=16 / chroma_me=1 / trellis=2 / 8x8dct=1 / cqm=0 / deadzone=21,11 / fast_pskip=1 / chroma_qp_offset=-2 / threads=4 / lookahead_threads=1 / sliced_threads=0 / nr=0 / decimate=0 / interlaced=0 / bluray_compat=0 / constrained_intra=0 / bframes=5 / b_pyramid=2 / b_adapt=2 / b_bias=0 / direct=1 / weightb=1 / open_gop=0 / weightp=2 / keyint=250 / keyint_min=23 / scenecut=40 / intra_refresh=0 / rc_lookahead=60 / rc=crf / mbtree=1 / crf=18.5 / qcomp=0.75 / qpmin=0 / qpmax=69 / qpstep=4 / ip_ratio=1.40 / aq=1:1.00
Дата кодирования : UTC 2015-10-16 16:03:05
Дата пометки : UTC 2015-10-16 16:03:50

Аудио
Идентификатор : 2
Формат : AC-3
Формат/Информация : Audio Coding 3
Расширение режима : CM (complete main)
Параметр Endianness формата : Big
Идентификатор кодека : ac-3
Продолжительность : 1 ч. 54 м.
Продолжительность оригинала : 1 ч. 54 м.
Вид битрейта : Постоянный
Битрейт : 192 Кбит/сек
Каналы : 2 канала
Расположение каналов : Front: L R
Частота : 48,0 КГц
Битовая глубина : 16 бит
Метод сжатия : С потерями
Размер потока : 157 Мбайт (8%)
Размер потока оригинала : 157 Мбайт (8%)
Дата кодирования : UTC 2015-10-16 16:03:43
Дата пометки : UTC 2015-10-16 16:03:50
http://www.iafd.com/title.rme/title=taboo+5/year=1986/taboo-5.htm

Scene 1. Karen Summer, Joey Silvera
Scene 2. Colleen Brennan, Lorrie Lovett, Kevin James
Scene 3. Porsche Lynn, Joey Silvera
Scene 4. Amber Lynn, Jonathon Younger
Scene 5. Amber Lynn, Jamie Gillis
Scene 6. Karen Summer, Buck Adams
Scene 7. Amber Lynn, Billy Dee, Jonathon Younger
Scene 8. Karen Summer, Jamie Gillis
Scene 9. Colleen Brennan, Shone Taylor
[url]...714485[/url]
[url]...360977[/url]
[url]...154777[/url]
[url=...2075454]TABOO[/url] [url=...2075858]TABOO 2[/url][url=...2076299]TABOO 3[/url][url=...2076724]TABOO 4[/url]
Трекер:  [ 13-Ноя-2015 02:00 ]

Размер .torrent файла 10 KB


Размер: 2 GB
Хэш (hash) релиза: f9148cc845097e92599f546f907ff92a0fc8bba0
Подписка на обновления:

Еще никто не оставлял запись к записи скачать торрент Taboo 5 Табу 5 . Будь первым!

!Обратная связь
//main.js show_panel