Статистика раздачи
Размер:  1.46 GB   |    Зарегистрирован:  1 год 10 месяцев   |    .torrent скачан:  59 раз   |   

Пиры будут получены при скачивании

 

Скачать порно The Private Afternoons of Pamela Mann / Частная жизнь Памелы Манн , Video X Pix) через торрент бесплатно :: UnionPron.org

 
 
Автор Сообщение

Sakura

avatar Sakura


The Private Afternoons of Pamela Mann / Частная жизнь Памелы Манн

Год производства: 1974 г.
Страна: USA
Жанр: Rеtro, Classic, Feature
Продолжительность: 01:23:30
Язык: Русский

Режиссер: Henry Paris (Radley Metzger)
Студия: Video X Pix

В ролях: Jamie Gillis, Georgina Spelvin, Eric Edwards, Marc Stevens, Barbara Bourbon, Sonny Landham, Kevin Andre, Darby Lloyd Rains, Alan Marlow, Levi Richards, David Savage, Day Jason, Linda Lovemore, Leo Lovemore, Lola LaGarce

Описание: Когда ревнивый муж нанимает детективов, чтобы следить за его женой, он может узнать даже больше, чем ожидал.

Доп. информация: http://www.iafd.com/title.rme/title=Private+Afternoons+of+Pamela+Mann/year=1975/private-afternoons-of-pamela-mann.htm

[url=...1591275]DVD5[/url]

Качество видео: DVDRip-AVC
Формат видео: MP4
Видео: х264, 720х456 (854х456), 1.85:1, 23.976 кадра/сек, 2314 Кбит/сек, 0.294
Аудио: AC-3, 48,0 КГц, стерео, 192 Кбит/сек
AVN Awards, 2003
Nominee: Best Classic Release

X-Caliber Awards, 1975
Winner: Best Full-Length Feature Film
Scene 1. Linda Lovemore, Leo Lovemore
Scene 2. Day Jason, David Savage
Scene 3. Barbara Bourbon, Marc Stevens
Scene 4. Day Jason, David Savage
Scene 5. Georgina Spelvin, Levi Richards
Scene 6. Barbara Bourbon, Linda Lovemore, Leo Lovemore
Scene 7. Barbara Bourbon, Darby Lloyd Rains, Jamie Gillis
Scene 8. Day Jason, David Savage
Scene 9. Barbara Bourbon, Georgina Spelvin
Scene 10. Barbara Bourbon, Sonny Landham
Scene 11. Day Jason, David Savage
Scene 12. Barbara Bourbon, Darby Lloyd Rains, Eric Edwards
Scene 13. Barbara Bourbon, Alan Marlow
Полное имя : H:\The Private Afternoons of Pamela Mann (1974).mp4
Формат : MPEG-4
Профиль формата : Base Media
Идентификатор кодека : isom
Размер файла : 1,46 Гбайт
Продолжительность : 1 ч. 23 м.
Общий поток : 2508 Кбит/сек
Дата кодирования : UTC 2015-11-12 01:48:42
Дата пометки : UTC 2015-11-12 01:48:42

Видео
Идентификатор : 1
Формат : AVC
Формат/Информация : Advanced Video Codec
Профиль формата : High@L3.1
Параметр CABAC формата : Да
Параметр ReFrames формата : 8 кадров
Идентификатор кодека : avc1
Идентификатор кодека/Информация : Advanced Video Coding
Продолжительность : 1 ч. 23 м.
Битрейт : 2314 Кбит/сек
Максимальный битрейт : 6860 Кбит/сек
Ширина : 720 пикселей
Высота : 456 пикселей
Соотношение сторон : 1,85:1
Режим частоты кадров : Постоянный
Частота кадров : 23,976 кадра/сек
Цветовое пространство : YUV
Субдискретизация насыщенности : 4:2:0
Битовая глубина : 8 бит
Тип развёртки : Прогрессивная
Бит/(Пиксели*Кадры) : 0.294
Размер потока : 1,35 Гбайт (92%)
Библиотека кодирования : x264 core 148 r2597 e86f3a1
Настройки программы : cabac=1 / ref=8 / deblock=1:0:0 / analyse=0x3:0x113 / me=umh / subme=9 / psy=1 / psy_rd=1.00:0.10 / mixed_ref=1 / me_range=16 / chroma_me=1 / trellis=2 / 8x8dct=1 / cqm=0 / deadzone=21,11 / fast_pskip=1 / chroma_qp_offset=-3 / threads=4 / lookahead_threads=1 / sliced_threads=0 / nr=0 / decimate=0 / interlaced=0 / bluray_compat=0 / constrained_intra=0 / bframes=5 / b_pyramid=2 / b_adapt=2 / b_bias=0 / direct=1 / weightb=1 / open_gop=0 / weightp=2 / keyint=250 / keyint_min=23 / scenecut=40 / intra_refresh=0 / rc_lookahead=60 / rc=crf / mbtree=1 / crf=18.0 / qcomp=0.70 / qpmin=0 / qpmax=69 / qpstep=4 / ip_ratio=1.40 / aq=1:1.00
Дата кодирования : UTC 2015-11-12 01:48:42
Дата пометки : UTC 2015-11-12 01:49:07
Цветовой диапазон : Limited
Коэффициенты матрицы : BT.601

Аудио
Идентификатор : 2
Формат : AC-3
Формат/Информация : Audio Coding 3
Расширение режима : CM (complete main)
Параметр Endianness формата : Big
Идентификатор кодека : ac-3
Продолжительность : 1 ч. 23 м.
Вид битрейта : Постоянный
Битрейт : 192 Кбит/сек
Каналы : 2 канала
Расположение каналов : Front: L R
Частота : 48,0 КГц
Битовая глубина : 16 бит
Метод сжатия : С потерями
Размер потока : 115 Мбайт (8%)
Дата кодирования : UTC 2015-11-12 01:48:58
Дата пометки : UTC 2015-11-12 01:49:07
[url]...1376150[/url] (2хDVD9)
[url]...1094290[/url] (VHSRip)
[url]...981170[/url] (DVDRip)
Трекер:  [ 13-Ноя-2015 02:00 ]

Размер .torrent файла 15 KB


Размер: 1.46 GB
Хэш (hash) релиза: 7a86a5fa8afb053e61f9fe1659037d93bf1bada2
Подписка на обновления:

Еще никто не оставлял запись к записи скачать торрент The Private Afternoons of Pamela Mann Частная жизнь Памелы Манн . Будь первым!

!Обратная связь
//main.js show_panel