Статистика раздачи
Размер:  2 GB   |    Зарегистрирован:  2 года   |    .torrent скачан:  86 раз   |   

Пиры будут получены при скачивании

 

Скачать порно Victoria Valentino Виктория Валентино через торрент бесплатно :: UnionPron.org

 
 
Автор Сообщение

Sakura

avatar Sakura


Виктория Валентино

Имя актрисы: Victoria Valentino
Псевдонимы актрисы: Mrs Valentino, Victoria Valentina
Охваченный временной промежуток: 2007-2014
Жанр: All Sex

Количество роликов: 59

Пол: Female
День рождения: April 6, 1971
Страна: United States
Место рождения: Arizona
Профессия: Pornstar
Национальность: Caucasian
Волосы: Brown
Глаза: Blue
Параметры фигуры: 36-25-36
Размер груди: DD (fake)
Рост: 5′2″ (157 cm)
Вес: 115 (52 kg)
Размер ноги: 6
Пирсинг: Navel
Начало карьеры: 2007
Карьерный статус: Active
General
Complete name : Big Boob Dirty 30''s & Squirting.avi
Format : AVI
Format/Info : Audio Video Interleave
File size : 176 MiB
Duration : 24mn 7s
Overall bit rate : 1 019 Kbps
Writing application : VirtualDubMod 1.5.10.2 (build 2542/release)
Writing library : VirtualDubMod build 2542/release
Video #0
ID : 0
Format : MPEG-4 Visual
Format profile : Advanced Simple@L5
Format settings, BVOP : 1
Format settings, QPel : No
Format settings, GMC : No warppoints
Format settings, Matrix : Default (MPEG)
Muxing mode : Packed bitstream
Codec ID : XVID
Codec ID/Hint : XviD
Duration : 24mn 7s
Bit rate : 905 Kbps
Width : 512 pixels
Height : 288 pixels
Display aspect ratio : 16:9
Frame rate : 29.970 fps
Color space : YUV
Chroma subsampling : 4:2:0
Bit depth : 8 bits
Scan type : Progressive
Compression mode : Lossy
Bits/(Pixel*Frame) : 0.205
Stream size : 156 MiB (89%)
Writing library : XviD 1.2.0.dev47 (UTC 2006-11-01)
Audio #1
ID : 1
Format : MPEG Audio
Format version : Version 1
Format profile : Layer 3
Mode : Joint stereo
Mode extension : MS Stereo
Codec ID : 55
Codec ID/Hint : MP3
Duration : 24mn 7s
Bit rate mode : Constant
Bit rate : 32.0 Kbps
Channel(s) : 2 channels
Sampling rate : 48.0 KHz
Compression mode : Lossy
Stream size : 17.3 MiB (10%)
Alignment : Aligned on interleaves
Interleave, duration : 24 ms (0.72 video frame)
Interleave, preload duration : 159 ms
Writing library : LAME3.97 (beta)ЄЄЄЄЄ
General
Complete name : Big cocks online.wmv
Format : Windows Media
File size : 297 MiB
Duration : 29mn 47s
Overall bit rate : 1 394 Kbps
Maximum Overall bit rate : 1 364 Kbps
Encoded date : UTC 1970-01-01 00:00:00.000
WM/EncodingSettings : Lavf55.12.100
Video #2
ID : 2
Format : WMV2
Codec ID : WMV2
Codec ID/Info : Windows Media Video 8
Description of the codec : wmv2
Duration : 29mn 47s
Bit rate : 1 266 Kbps
Width : 640 pixels
Height : 480 pixels
Display aspect ratio : 4:3
Frame rate : 29.970 fps
Bit depth : 8 bits
Bits/(Pixel*Frame) : 0.137
Stream size : 270 MiB (91%)
Audio #1
ID : 1
Format : WMA
Format version : Version 2
Codec ID : 161
Codec ID/Info : Windows Media Audio
Description of the codec : Windows Media Audio V8
Duration : 29mn 47s
Bit rate : 64.0 Kbps
Channel(s) : 2 channels
Sampling rate : 44.1 KHz
Bit depth : 16 bits
Stream size : 13.6 MiB (5%)
General
Complete name : Big Titty Milfs 4.wmv
Format : Windows Media
File size : 363 MiB
Duration : 27mn 56s
Overall bit rate mode : Constant
Overall bit rate : 1 816 Kbps
Maximum Overall bit rate : 1 915 Kbps
Encoded date : UTC 2015-10-01 13:58:53.395
Video #2
ID : 2
Format : VC-1
Format profile : MP@ML
Codec ID : WMV3
Codec ID/Info : Windows Media Video 9
Codec ID/Hint : WMV3
Description of the codec : Windows Media Video 9
Duration : 27mn 56s
Bit rate mode : Constant
Bit rate : 1 705 Kbps
Width : 512 pixels
Height : 288 pixels
Display aspect ratio : 16:9
Frame rate : 29.970 fps
Bit depth : 8 bits
Scan type : Progressive
Compression mode : Lossy
Bits/(Pixel*Frame) : 0.386
Stream size : 341 MiB (94%)
Language : Russian
Audio #1
ID : 1
Format : WMA
Format version : Version 2
Codec ID : 161
Codec ID/Info : Windows Media Audio
Description of the codec : Windows Media Audio 9.2 - 192 kbps, 48 kHz, stereo 1-pass CBR
Duration : 27mn 56s
Bit rate mode : Constant
Bit rate : 192 Kbps
Channel(s) : 2 channels
Sampling rate : 48.0 KHz
Bit depth : 16 bits
Stream size : 38.4 MiB (11%)
Language : Russian
General
Complete name :BigTits RoundAsses.com.wmv
Format : Windows Media
File size : 325 MiB
Duration : 43mn 6s
Overall bit rate mode : Constant
Overall bit rate : 1 053 Kbps
Maximum Overall bit rate : 1 061 Kbps
Encoded date : UTC 2008-02-14 22:15:29.328
SfOriginalFPS : 300000
Video #2
ID : 2
Format : VC-1
Format profile : MP@ML
Codec ID : WMV3
Codec ID/Info : Windows Media Video 9
Codec ID/Hint : WMV3
Description of the codec : Windows Media Video 9 - Professional
Duration : 43mn 6s
Bit rate mode : Constant
Bit rate : 1 017 Kbps
Width : 640 pixels
Height : 480 pixels
Display aspect ratio : 4:3
Frame rate : 30.000 fps
Bit depth : 8 bits
Scan type : Progressive
Compression mode : Lossy
Bits/(Pixel*Frame) : 0.110
Stream size : 313 MiB (97%)
Audio #1
ID : 1
Format : WMA
Format version : Version 2
Codec ID : 161
Codec ID/Info : Windows Media Audio
Description of the codec : Windows Media Audio 9.1 - 32 kbps, 44 kHz, stereo (A/V) 1-pass CBR
Duration : 43mn 6s
Bit rate mode : Constant
Bit rate : 32.0 Kbps
Channel(s) : 2 channels
Sampling rate : 44.1 KHz
Bit depth : 16 bits
Stream size : 9.85 MiB (3%)
General
Complete name : Busty Office Milfs.wmv
Format : Windows Media
File size : 639 MiB
Duration : 37mn 1s
Overall bit rate mode : Constant
Overall bit rate : 2 412 Kbps
Maximum Overall bit rate : 2 487 Kbps
Encoded date : UTC 2015-10-01 14:21:14.905
Video #2
ID : 2
Format : VC-1
Format profile : MP@ML
Codec ID : WMV3
Codec ID/Info : Windows Media Video 9
Codec ID/Hint : WMV3
Description of the codec : Windows Media Video 9
Duration : 37mn 1s
Bit rate mode : Constant
Bit rate : 2 273 Kbps
Width : 512 pixels
Height : 384 pixels
Display aspect ratio : 4:3
Frame rate : 29.970 fps
Bit depth : 8 bits
Scan type : Progressive
Compression mode : Lossy
Bits/(Pixel*Frame) : 0.386
Stream size : 602 MiB (94%)
Language : Russian
Audio #1
ID : 1
Format : WMA
Format version : Version 2
Codec ID : 161
Codec ID/Info : Windows Media Audio
Description of the codec : Windows Media Audio 9.2 - 192 kbps, 48 kHz, stereo 1-pass CBR
Duration : 37mn 1s
Bit rate mode : Constant
Bit rate : 192 Kbps
Channel(s) : 2 channels
Sampling rate : 48.0 KHz
Bit depth : 16 bits
Stream size : 50.8 MiB (8%)
Language : Russian
General
Complete name : Caught Between a Cock and a Hard Case.mp4
Format : MPEG-4
Format profile : Base Media / Version 2
Codec ID : mp42
File size : 366 MiB
Duration : 31mn 25s
Overall bit rate : 1 629 Kbps
Encoded date : UTC 2009-10-14 19:45:52
Tagged date : UTC 2009-10-14 19:45:52
Video #1
ID : 1
Format : AVC
Format/Info : Advanced Video Codec
Format profile : Main@L3.1
Format settings, CABAC : Yes
Format settings, ReFrames : 4 frames
Format settings, GOP : M=4, N=33
Codec ID : avc1
Codec ID/Info : Advanced Video Coding
Duration : 31mn 25s
Bit rate mode : Variable
Bit rate : 1 498 Kbps
Maximum bit rate : 1 999 Kbps
Width : 768 pixels
Height : 432 pixels
Display aspect ratio : 16:9
Frame rate mode : Constant
Frame rate : 29.970 fps
Standard : NTSC
Color space : YUV
Chroma subsampling : 4:2:0
Bit depth : 8 bits
Scan type : Progressive
Bits/(Pixel*Frame) : 0.151
Stream size : 337 MiB (92%)
Language : English
Encoded date : UTC 2009-10-14 19:45:54
Tagged date : UTC 2009-10-14 19:45:54
Audio #2
ID : 2
Format : AAC
Format/Info : Advanced Audio Codec
Format profile : LC
Codec ID : 40
Duration : 31mn 25s
Bit rate mode : Variable
Bit rate : 126 Kbps
Maximum bit rate : 192 Kbps
Channel(s) : 2 channels
Channel positions : Front: L R
Sampling rate : 44.1 KHz
Compression mode : Lossy
Stream size : 28.2 MiB (8%)
Language : English
Encoded date : UTC 2009-10-14 19:45:54
Tagged date : UTC 2009-10-14 19:45:54
General
Complete name : Cheating Wives Tales 6.avi
Format : AVI
Format/Info : Audio Video Interleave
File size : 186 MiB
Duration : 21mn 16s
Overall bit rate : 1 223 Kbps
Writing application : Lavf55.12.100
Video #1
ID : 1
Format : MPEG-4 Visual
Format profile : Advanced Simple@L5
Format settings, BVOP : 1
Format settings, QPel : No
Format settings, GMC : No warppoints
Format settings, Matrix : Default (H.263)
Codec ID : FMP4
Duration : 21mn 16s
Bit rate : 1 081 Kbps
Width : 512 pixels
Height : 384 pixels
Display aspect ratio : 4:3
Frame rate : 29.970 fps
Color space : YUV
Chroma subsampling : 4:2:0
Bit depth : 8 bits
Scan type : Progressive
Compression mode : Lossy
Bits/(Pixel*Frame) : 0.183
Stream size : 164 MiB (88%)
Writing library : XviD 1.0.3 (UTC 2004-12-20)
Audio #0
ID : 0
Format : MPEG Audio
Format version : Version 1
Format profile : Layer 3
Mode : Joint stereo
Mode extension : MS Stereo
Codec ID : 55
Codec ID/Hint : MP3
Duration : 21mn 16s
Bit rate mode : Variable
Bit rate : 128 Kbps
Channel(s) : 2 channels
Sampling rate : 48.0 KHz
Compression mode : Lossy
Stream size : 19.4 MiB (10%)
Alignment : Aligned on interleaves
Interleave, duration : 33 ms (1.00 video frame)
General
Complete name : Cougars in Heat.mp4
Format : MPEG-4
Codec ID : M4V
File size : 246 MiB
Duration : 27mn 56s
Overall bit rate : 1 232 Kbps
Encoded date : UTC 2015-06-29 09:04:50
Tagged date : UTC 2015-06-29 09:04:50
Video #1
ID : 1
Format : AVC
Format/Info : Advanced Video Codec
Format profile : Main@L3.0
Format settings, CABAC : Yes
Format settings, ReFrames : 2 frames
Codec ID : avc1
Codec ID/Info : Advanced Video Coding
Duration : 27mn 56s
Bit rate mode : Variable
Bit rate : 1 098 Kbps
Maximum bit rate : 1 210 Kbps
Width : 720 pixels
Height : 480 pixels
Display aspect ratio : 4:3
Original display aspect ratio : 4:3
Frame rate mode : Constant
Frame rate : 29.970 fps
Standard : NTSC
Color space : YUV
Chroma subsampling : 4:2:0
Bit depth : 8 bits
Scan type : Progressive
Bits/(Pixel*Frame) : 0.106
Stream size : 220 MiB (89%)
Encoded date : UTC 2015-06-29 09:04:50
Tagged date : UTC 2015-06-29 09:04:50
Audio #2
ID : 2
Format : AAC
Format/Info : Advanced Audio Codec
Format profile : LC
Codec ID : 40
Duration : 27mn 56s
Bit rate mode : Variable
Bit rate : 128 Kbps
Maximum bit rate : 137 Kbps
Channel(s) : 2 channels
Channel positions : Front: L R
Sampling rate : 44.1 KHz
Compression mode : Lossy
Stream size : 25.1 MiB (10%)
Encoded date : UTC 2015-06-29 09:04:50
Tagged date : UTC 2015-06-29 09:04:50
General
Complete name : Cougars Love Kittens.wmv
Format : Windows Media
File size : 214 MiB
Duration : 16mn 47s
Overall bit rate mode : Constant
Overall bit rate : 1 784 Kbps
Maximum Overall bit rate : 1 915 Kbps
Encoded date : UTC 2015-10-01 15:04:40.865
Video #2
ID : 2
Format : VC-1
Format profile : MP@ML
Codec ID : WMV3
Codec ID/Info : Windows Media Video 9
Codec ID/Hint : WMV3
Description of the codec : Windows Media Video 9
Duration : 16mn 47s
Bit rate mode : Constant
Bit rate : 1 705 Kbps
Width : 512 pixels
Height : 288 pixels
Display aspect ratio : 16:9
Frame rate : 29.970 fps
Bit depth : 8 bits
Scan type : Progressive
Compression mode : Lossy
Bits/(Pixel*Frame) : 0.386
Stream size : 205 MiB (96%)
Language : Russian
Audio #1
ID : 1
Format : WMA
Format version : Version 2
Codec ID : 161
Codec ID/Info : Windows Media Audio
Description of the codec : Windows Media Audio 9.2 - 192 kbps, 48 kHz, stereo 1-pass CBR
Duration : 16mn 47s
Bit rate mode : Constant
Bit rate : 192 Kbps
Channel(s) : 2 channels
Sampling rate : 48.0 KHz
Bit depth : 16 bits
Stream size : 23.1 MiB (11%)
Language : Russian
General
Complete name :DD Housewives - scene4.mp4
Format : MPEG-4
Format profile : Base Media / Version 2
Codec ID : mp42
File size : 473 MiB
Duration : 23mn 11s
Overall bit rate : 2 849 Kbps
Encoded date : UTC 2011-08-09 06:47:39
Tagged date : UTC 2011-08-09 06:47:39
Video #201
ID : 201
Format : AVC
Format/Info : Advanced Video Codec
Format profile : Baseline@L3.1
Format settings, CABAC : No
Format settings, ReFrames : 3 frames
Codec ID : avc1
Codec ID/Info : Advanced Video Coding
Duration : 23mn 11s
Bit rate mode : Variable
Bit rate : 2 600 Kbps
Maximum bit rate : 4 245 Kbps
Width : 720 pixels
Height : 540 pixels
Display aspect ratio : 4:3
Frame rate mode : Constant
Frame rate : 30.000 fps
Color space : YUV
Chroma subsampling : 4:2:0
Bit depth : 8 bits
Scan type : Progressive
Bits/(Pixel*Frame) : 0.223
Stream size : 431 MiB (91%)
Title : /home/vz/encoder/tmp/MP4-dd-housewives-scene4.mp4.h264 - Imported with GPAC 0.4.6-DEV (internal rev. 8)
Writing library : x264 core 112
Encoding settings : cabac=0 / ref=3 / deblock=1:0:0 / analyse=0x1:0x111 / me=hex / subme=7 / psy=1 / psy_rd=1.00:0.00 / mixed_ref=1 / me_range=16 / chroma_me=1 / trellis=1 / 8x8dct=0 / cqm=0 / deadzone=21,11 / fast_pskip=1 / chroma_qp_offset=-2 / threads=24 / sliced_threads=0 / nr=0 / decimate=1 / interlaced=0 / constrained_intra=0 / bframes=0 / weightp=0 / keyint=300 / keyint_min=30 / scenecut=40 / intra_refresh=0 / rc_lookahead=40 / rc=abr / mbtree=1 / bitrate=2600 / ratetol=1.0 / qcomp=0.60 / qpmin=0 / qpmax=51 / qpstep=4 / ip_ratio=1.40 / aq=1:1.00
Encoded date : UTC 2011-08-09 06:47:40
Tagged date : UTC 2011-08-09 06:47:45
Audio #101
ID : 101
Format : AAC
Format/Info : Advanced Audio Codec
Format profile : LC
Codec ID : 40
Duration : 23mn 11s
Bit rate mode : Variable
Bit rate : 152 Kbps
Maximum bit rate : 180 Kbps
Channel(s) : 2 channels
Channel positions : Front: L R
Sampling rate : 48.0 KHz
Compression mode : Lossy
Stream size : 25.3 MiB (5%)
Title : /home/vz/encoder/tmp/MP4-dd-housewives-scene4.mp4.aac - Imported with GPAC 0.4.6-DEV (internal rev. 8)
Encoded date : UTC 2011-08-09 06:47:39
Tagged date : UTC 2011-08-09 06:47:45
General
Complete name : DD Housewives - scene6.mp4
Format : MPEG-4
Format profile : Base Media / Version 2
Codec ID : mp42
File size : 361 MiB
Duration : 17mn 43s
Overall bit rate : 2 850 Kbps
Encoded date : UTC 2011-08-09 09:41:07
Tagged date : UTC 2011-08-09 09:41:07
Video #201
ID : 201
Format : AVC
Format/Info : Advanced Video Codec
Format profile : Baseline@L3.1
Format settings, CABAC : No
Format settings, ReFrames : 3 frames
Codec ID : avc1
Codec ID/Info : Advanced Video Coding
Duration : 17mn 43s
Bit rate mode : Variable
Bit rate : 2 600 Kbps
Maximum bit rate : 4 627 Kbps
Width : 720 pixels
Height : 540 pixels
Display aspect ratio : 4:3
Frame rate mode : Constant
Frame rate : 30.000 fps
Color space : YUV
Chroma subsampling : 4:2:0
Bit depth : 8 bits
Scan type : Progressive
Bits/(Pixel*Frame) : 0.223
Stream size : 329 MiB (91%)
Title : /home/vz/encoder/tmp/MP4-dd-housewives-bonus-scene1.mp4.h264 - Imported with GPAC 0.4.6-DEV (internal rev. 8)
Writing library : x264 core 112
Encoding settings : cabac=0 / ref=3 / deblock=1:0:0 / analyse=0x1:0x111 / me=hex / subme=7 / psy=1 / psy_rd=1.00:0.00 / mixed_ref=1 / me_range=16 / chroma_me=1 / trellis=1 / 8x8dct=0 / cqm=0 / deadzone=21,11 / fast_pskip=1 / chroma_qp_offset=-2 / threads=24 / sliced_threads=0 / nr=0 / decimate=1 / interlaced=0 / constrained_intra=0 / bframes=0 / weightp=0 / keyint=300 / keyint_min=30 / scenecut=40 / intra_refresh=0 / rc_lookahead=40 / rc=abr / mbtree=1 / bitrate=2600 / ratetol=1.0 / qcomp=0.60 / qpmin=0 / qpmax=51 / qpstep=4 / ip_ratio=1.40 / aq=1:1.00
Encoded date : UTC 2011-08-09 09:41:08
Tagged date : UTC 2011-08-09 09:41:13
Audio #101
ID : 101
Format : AAC
Format/Info : Advanced Audio Codec
Format profile : LC
Codec ID : 40
Duration : 17mn 43s
Bit rate mode : Variable
Bit rate : 152 Kbps
Maximum bit rate : 175 Kbps
Channel(s) : 2 channels
Channel positions : Front: L R
Sampling rate : 48.0 KHz
Compression mode : Lossy
Stream size : 19.3 MiB (5%)
Title : /home/vz/encoder/tmp/MP4-dd-housewives-bonus-scene1.mp4.aac - Imported with GPAC 0.4.6-DEV (internal rev. 8)
Encoded date : UTC 2011-08-09 09:41:07
Tagged date : UTC 2011-08-09 09:41:13
General
Complete name : Diary Of A Milf.wmv
Format : Windows Media
File size : 111 MiB
Duration : 26mn 47s
Overall bit rate mode : Constant
Overall bit rate : 580 Kbps
Maximum Overall bit rate : 585 Kbps
Encoded date : UTC 2007-09-01 23:14:00.239
Video #2
ID : 2
Format : VC-1
Format profile : MP@ML
Codec ID : WMV3
Codec ID/Info : Windows Media Video 9
Codec ID/Hint : WMV3
Description of the codec : Windows Media Video 9
Duration : 26mn 47s
Bit rate mode : Constant
Bit rate : 512 Kbps
Width : 480 pixels
Height : 360 pixels
Display aspect ratio : 4:3
Frame rate : 29.970 fps
Bit depth : 8 bits
Scan type : Progressive
Compression mode : Lossy
Bits/(Pixel*Frame) : 0.099
Stream size : 98.1 MiB (88%)
Language : English (US)
Audio #1
ID : 1
Format : WMA
Format version : Version 2
Codec ID : 161
Codec ID/Info : Windows Media Audio
Description of the codec : Windows Media Audio 9.2 - 64 kbps, 44 kHz, stereo (A/V) 2-pass CBR
Duration : 26mn 47s
Bit rate mode : Constant
Bit rate : 64.0 Kbps
Channel(s) : 2 channels
Sampling rate : 44.1 KHz
Bit depth : 16 bits
Stream size : 12.3 MiB (11%)
Language : English (US)
General
Complete name : Dirty 30s 4.wmv
Format : Windows Media
File size : 391 MiB
Duration : 22mn 59s
Overall bit rate mode : Constant
Overall bit rate : 2 376 Kbps
Maximum Overall bit rate : 2 487 Kbps
Encoded date : UTC 2015-10-01 15:24:11.860
Video #2
ID : 2
Format : VC-1
Format profile : MP@ML
Codec ID : WMV3
Codec ID/Info : Windows Media Video 9
Codec ID/Hint : WMV3
Description of the codec : Windows Media Video 9
Duration : 22mn 59s
Bit rate mode : Constant
Bit rate : 2 273 Kbps
Width : 512 pixels
Height : 384 pixels
Display aspect ratio : 4:3
Frame rate : 29.970 fps
Bit depth : 8 bits
Scan type : Progressive
Compression mode : Lossy
Bits/(Pixel*Frame) : 0.386
Stream size : 374 MiB (96%)
Language : Russian
Audio #1
ID : 1
Format : WMA
Format version : Version 2
Codec ID : 161
Codec ID/Info : Windows Media Audio
Description of the codec : Windows Media Audio 9.2 - 192 kbps, 48 kHz, stereo 1-pass CBR
Duration : 22mn 59s
Bit rate mode : Constant
Bit rate : 192 Kbps
Channel(s) : 2 channels
Sampling rate : 48.0 KHz
Bit depth : 16 bits
Stream size : 31.6 MiB (8%)
Language : Russian
General
Complete name : Fuck My Mom And Me 4.avi
Format : AVI
Format/Info : Audio Video Interleave
File size : 313 MiB
Duration : 34mn 0s
Overall bit rate : 1 289 Kbps
Writing library : The File had been created by Solveig Multimedia AVI Writer
Video #0
ID : 0
Format : MPEG-4 Visual
Format profile : Advanced Simple@L5
Format settings, BVOP : 1
Format settings, QPel : No
Format settings, GMC : No warppoints
Format settings, Matrix : Default (H.263)
Codec ID : XVID
Codec ID/Hint : XviD
Duration : 31mn 56s
Bit rate : 1 222 Kbps
Width : 512 pixels
Height : 384 pixels
Display aspect ratio : 4:3
Frame rate : 29.970 fps
Color space : YUV
Chroma subsampling : 4:2:0
Bit depth : 8 bits
Scan type : Progressive
Compression mode : Lossy
Bits/(Pixel*Frame) : 0.207
Stream size : 279 MiB (89%)
Writing library : XviD 1.1.2 (UTC 2006-11-01)
Audio #1
ID : 1
Format : MPEG Audio
Format version : Version 1
Format profile : Layer 3
Mode : Joint stereo
Mode extension : MS Stereo
Codec ID : 55
Codec ID/Hint : MP3
Duration : 34mn 0s
Bit rate mode : Variable
Bit rate : 128 Kbps
Channel(s) : 2 channels
Sampling rate : 48.0 KHz
Compression mode : Lossy
Delay relative to video : 1ms
Stream size : 31.1 MiB (10%)
Alignment : Aligned on interleaves
Interleave, duration : 24 ms (0.72 video frame)
General
Complete name : Gigantic Joggies 5-scene3.wmv
Format : Windows Media
File size : 239 MiB
Duration : 15mn 56s
Overall bit rate mode : Constant
Overall bit rate : 2 100 Kbps
Maximum Overall bit rate : 2 111 Kbps
Encoded date : UTC 2008-02-17 13:24:51.796
Video #2
ID : 2
Format : VC-1
Format profile : MP@ML
Codec ID : WMV3
Codec ID/Info : Windows Media Video 9
Codec ID/Hint : WMV3
Description of the codec : Windows Media Video 9 - Professional
Duration : 15mn 56s
Bit rate mode : Constant
Bit rate : 2 043 Kbps
Width : 720 pixels
Height : 480 pixels
Display aspect ratio : 3:2
Frame rate : 29.970 fps
Standard : NTSC
Bit depth : 8 bits
Scan type : Progressive
Compression mode : Lossy
Bits/(Pixel*Frame) : 0.197
Stream size : 233 MiB (97%)
Language : English (US)
Audio #1
ID : 1
Format : WMA
Format version : Version 2
Codec ID : 161
Codec ID/Info : Windows Media Audio
Description of the codec : Windows Media Audio 9 - 48 kbps, 44 kHz, mono (A/V) 1-pass CBR
Duration : 15mn 56s
Bit rate mode : Constant
Bit rate : 48.0 Kbps
Channel(s) : 1 channel
Sampling rate : 44.1 KHz
Bit depth : 16 bits
Stream size : 5.47 MiB (2%)
Language : English (US)
General
Complete name : HHW.wmv
Format : Windows Media
File size : 672 MiB
Duration : 29mn 48s
Overall bit rate mode : Constant
Overall bit rate : 3 154 Kbps
Maximum Overall bit rate : 3 155 Kbps
Encoded date : UTC 2010-01-19 03:40:44.850
Video #2
ID : 2
Format : VC-1
Format profile : MP@HL
Codec ID : WMV3
Codec ID/Info : Windows Media Video 9
Codec ID/Hint : WMV3
Description of the codec : Windows Media Video 9 - Professional
Duration : 29mn 48s
Bit rate mode : Constant
Bit rate : 3 000 Kbps
Width : 1 280 pixels
Height : 720 pixels
Display aspect ratio : 16:9
Frame rate : 29.970 fps
Bit depth : 8 bits
Scan type : Progressive
Compression mode : Lossy
Bits/(Pixel*Frame) : 0.109
Stream size : 639 MiB (95%)
Audio #1
ID : 1
Format : WMA
Format version : Version 2
Codec ID : 161
Codec ID/Info : Windows Media Audio
Description of the codec : Windows Media Audio 9.2 - 128 kbps, 44 kHz, stereo 1-pass CBR
Duration : 29mn 48s
Bit rate mode : Constant
Bit rate : 128 Kbps
Channel(s) : 2 channels
Sampling rate : 44.1 KHz
Bit depth : 16 bits
Stream size : 27.3 MiB (4%)
General
Complete name : Horny MILF Club.mp4
Format : MPEG-4
Format profile : Base Media / Version 2
Codec ID : mp42
File size : 240 MiB
Duration : 22mn 22s
Overall bit rate : 1 498 Kbps
Encoded date : UTC 2013-03-29 12:24:44
Tagged date : UTC 2013-03-29 12:24:44
Video #1
ID : 1
Format : AVC
Format/Info : Advanced Video Codec
Format profile : High@L3.1
Format settings, CABAC : Yes
Format settings, ReFrames : 5 frames
Format settings, GOP : M=3, N=44
Codec ID : avc1
Codec ID/Info : Advanced Video Coding
Duration : 22mn 22s
Bit rate mode : Variable
Bit rate : 1 368 Kbps
Width : 640 pixels
Height : 360 pixels
Display aspect ratio : 16:9
Frame rate mode : Variable
Frame rate : 29.970 fps
Minimum frame rate : 29.970 fps
Maximum frame rate : 29.980 fps
Color space : YUV
Chroma subsampling : 4:2:0
Bit depth : 8 bits
Scan type : Progressive
Bits/(Pixel*Frame) : 0.198
Stream size : 219 MiB (91%)
Language : English
Encoded date : UTC 2013-03-29 12:24:44
Tagged date : UTC 2013-03-29 12:24:44
Color primaries : BT.470-6 System B, BT.470-6 System G, BT.601-6 625, BT.1358 625, BT.1700 625 PAL, BT.1700 625 SECAM
Transfer characteristics : BT.470-6 System B, BT.470-6 System G
Matrix coefficients : BT.470-6 System B, BT.470-6 System G, BT.601-6 625, BT.1358 625, BT.1700 625 PAL, BT.1700 625 SECAM, IEC 61966-2-4 601
Audio #2
ID : 2
Format : AAC
Format/Info : Advanced Audio Codec
Format profile : LC
Codec ID : 40
Duration : 22mn 22s
Bit rate mode : Variable
Bit rate : 123 Kbps
Channel(s) : 2 channels
Channel positions : Front: L R
Sampling rate : 48.0 KHz
Compression mode : Lossy
Stream size : 19.7 MiB (8%)
Language : English
Encoded date : UTC 2013-03-29 12:24:44
Tagged date : UTC 2013-03-29 12:24:44
General
Complete name : Housewives Unleashed 30.avi
Format : AVI
Format/Info : Audio Video Interleave
File size : 197 MiB
Duration : 35mn 11s
Overall bit rate : 782 Kbps
Writing library : The File had been created by Solveig Multimedia AVI Writer
Video #0
ID : 0
Format : MPEG-4 Visual
Format profile : Advanced Simple@L5
Format settings, BVOP : 2
Format settings, QPel : No
Format settings, GMC : No warppoints
Format settings, Matrix : Custom
Codec ID : XVID
Codec ID/Hint : XviD
Duration : 35mn 11s
Bit rate : 683 Kbps
Width : 512 pixels
Height : 384 pixels
Display aspect ratio : 4:3
Frame rate : 29.970 fps
Color space : YUV
Chroma subsampling : 4:2:0
Bit depth : 8 bits
Scan type : Progressive
Compression mode : Lossy
Bits/(Pixel*Frame) : 0.116
Stream size : 172 MiB (87%)
Writing library : XviD 1.2.0.dev47 (UTC 2006-11-01)
Audio #1
ID : 1
Format : MPEG Audio
Format version : Version 1
Format profile : Layer 3
Mode : Joint stereo
Mode extension : MS Stereo
Codec ID : 55
Codec ID/Hint : MP3
Duration : 19mn 36s
Bit rate mode : Variable
Bit rate : 160 Kbps
Channel(s) : 2 channels
Sampling rate : 48.0 KHz
Compression mode : Lossy
Stream size : 22.4 MiB (11%)
Alignment : Aligned on interleaves
Interleave, duration : 24 ms (0.72 video frame)
Interleave, preload duration : 21045 ms
General
Complete name : I Banged Your Hot Mom 3.wmv
Format : Windows Media
File size : 497 MiB
Duration : 24mn 20s
Overall bit rate mode : Constant
Overall bit rate : 2 856 Kbps
Maximum Overall bit rate : 3 775 Kbps
Encoded date : UTC 2015-10-01 19:14:56.831
Video #2
ID : 2
Format : VC-1
Format profile : MP@ML
Codec ID : WMV3
Codec ID/Info : Windows Media Video 9
Codec ID/Hint : WMV3
Description of the codec : Windows Media Video 9 - Professional
Duration : 24mn 20s
Bit rate mode : Constant
Bit rate : 3 552 Kbps
Width : 640 pixels
Height : 480 pixels
Display aspect ratio : 4:3
Frame rate : 29.970 fps
Bit depth : 8 bits
Scan type : Progressive
Compression mode : Lossy
Bits/(Pixel*Frame) : 0.386
Stream size : 618 MiB
Language : Russian
Audio #1
ID : 1
Format : WMA
Format version : Version 2
Codec ID : 161
Codec ID/Info : Windows Media Audio
Description of the codec : Windows Media Audio 9.2 - 192 kbps, 48 kHz, stereo 1-pass CBR
Duration : 24mn 20s
Bit rate mode : Constant
Bit rate : 192 Kbps
Channel(s) : 2 channels
Sampling rate : 48.0 KHz
Bit depth : 16 bits
Stream size : 33.4 MiB (7%)
Language : Russian
General
Complete name : I Came In Your Mom 2.mp4
Format : MPEG-4
Format profile : Base Media
Codec ID : isom
File size : 942 MiB
Duration : 25mn 24s
Overall bit rate : 5 185 Kbps
Writing application : Lavf52.16.0
Comment : FlixEngineLinux_8.0.14.0 (www.on2.com)
Video #1
ID : 1
Format : AVC
Format/Info : Advanced Video Codec
Format profile : Baseline@L3.1
Format settings, CABAC : No
Format settings, ReFrames : 1 frame
Codec ID : avc1
Codec ID/Info : Advanced Video Coding
Duration : 26mn 28s
Bit rate mode : Variable
Bit rate : 4 907 Kbps
Width : 1 280 pixels
Height : 720 pixels
Display aspect ratio : 16:9
Color space : YUV
Chroma subsampling : 4:2:0
Bit depth : 8 bits
Scan type : Progressive
Stream size : 929 MiB (99%)
Audio #2
ID : 2
Format : AAC
Format/Info : Advanced Audio Codec
Format profile : LC
Codec ID : 40
Duration : 25mn 24s
Bit rate mode : Variable
Bit rate : 64.0 Kbps
Channel(s) : 2 channels
Channel positions : Front: L R
Sampling rate : 48.0 KHz
Compression mode : Lossy
Stream size : 11.6 MiB (1%)
General
Complete name : Internalpass.com.wmv
Format : Windows Media
File size : 424 MiB
Duration : 25mn 57s
Overall bit rate mode : Variable
Overall bit rate : 2 286 Kbps
Maximum Overall bit rate : 2 784 Kbps
Encoded date : UTC 2008-07-03 19:54:59.718
SfOriginalFPS : 299700
Video #2
ID : 2
Format : VC-1
Format profile : MP@HL
Codec ID : WMV3
Codec ID/Info : Windows Media Video 9
Codec ID/Hint : WMV3
Description of the codec : Windows Media Video 9 - Professional
Duration : 25mn 57s
Bit rate mode : Variable
Bit rate : 2 097 Kbps
Width : 1 280 pixels
Height : 720 pixels
Display aspect ratio : 16:9
Frame rate : 29.970 fps
Bit depth : 8 bits
Scan type : Progressive
Compression mode : Lossy
Bits/(Pixel*Frame) : 0.076
Stream size : 389 MiB (92%)
Language : Bulgarian
Audio #1
ID : 1
Format : WMA
Format profile : Pro
Codec ID : 162
Codec ID/Info : Windows Media Audio
Description of the codec : Windows Media Audio 9.1 Professional - 128 kbps, 44 kHz, 2 channel 24 bit (A/V) 1-pass CBR
Duration : 25mn 57s
Bit rate mode : Constant
Bit rate : 128 Kbps
Channel(s) : 2 channels
Sampling rate : 44.1 KHz
Bit depth : 24 bits
Stream size : 23.8 MiB (6%)
Language : Bulgarian
General
Complete name : It s a Mommy Thing 2.avi
Format : AVI
Format/Info : Audio Video Interleave
File size : 243 MiB
Duration : 44mn 24s
Overall bit rate : 765 Kbps
Writing library : The File had been created by Solveig Multimedia AVI Writer
Video #0
ID : 0
Format : MPEG-4 Visual
Format profile : Advanced Simple@L5
Format settings, BVOP : 1
Format settings, QPel : No
Format settings, GMC : No warppoints
Format settings, Matrix : Custom
Codec ID : XVID
Codec ID/Hint : XviD
Duration : 44mn 24s
Bit rate : 667 Kbps
Width : 512 pixels
Height : 384 pixels
Display aspect ratio : 4:3
Frame rate : 29.970 fps
Color space : YUV
Chroma subsampling : 4:2:0
Bit depth : 8 bits
Scan type : Progressive
Compression mode : Lossy
Bits/(Pixel*Frame) : 0.113
Stream size : 212 MiB (87%)
Writing library : XviD 1.1.0 (UTC 2005-11-22)
Audio #1
ID : 1
Format : MPEG Audio
Format version : Version 1
Format profile : Layer 3
Mode : Joint stereo
Mode extension : MS Stereo
Codec ID : 55
Codec ID/Hint : MP3
Duration : 30mn 38s
Bit rate mode : Variable
Bit rate : 128 Kbps
Channel(s) : 2 channels
Sampling rate : 48.0 KHz
Compression mode : Lossy
Stream size : 28.1 MiB (12%)
Alignment : Aligned on interleaves
Interleave, duration : 24 ms (0.72 video frame)
General
Complete name : Lisa Ann MILF Trainer.avi
Format : AVI
Format/Info : Audio Video Interleave
File size : 170 MiB
Duration : 31mn 54s
Overall bit rate : 746 Kbps
Writing library : The File had been created by Solveig Multimedia AVI Writer
Video #0
ID : 0
Format : MPEG-4 Visual
Format profile : Advanced Simple@L5
Format settings, BVOP : 1
Format settings, QPel : No
Format settings, GMC : No warppoints
Format settings, Matrix : Custom
Muxing mode : Packed bitstream
Codec ID : XVID
Codec ID/Hint : XviD
Duration : 31mn 54s
Bit rate : 651 Kbps
Width : 576 pixels
Height : 320 pixels
Display aspect ratio : 16:9
Frame rate : 29.970 fps
Color space : YUV
Chroma subsampling : 4:2:0
Bit depth : 8 bits
Scan type : Progressive
Compression mode : Lossy
Bits/(Pixel*Frame) : 0.118
Stream size : 149 MiB (87%)
Writing library : XviD 1.2.0SMP (UTC 2006-01-08)
Audio #1
ID : 1
Format : MPEG Audio
Format version : Version 1
Format profile : Layer 3
Mode : Joint stereo
Mode extension : MS Stereo
Codec ID : 55
Codec ID/Hint : MP3
Duration : 21mn 5s
Bit rate mode : Variable
Bit rate : 128 Kbps
Channel(s) : 2 channels
Sampling rate : 48.0 KHz
Compression mode : Lossy
Stream size : 19.3 MiB (11%)
Alignment : Aligned on interleaves
Interleave, duration : 24 ms (0.72 video frame)
General
Complete name : Mayhem-Who''s Your Momma 2.avi
Format : AVI
Format/Info : Audio Video Interleave
File size : 253 MiB
Duration : 33mn 42s
Overall bit rate : 1 049 Kbps
Writing library : The File had been created by Solveig Multimedia AVI Writer
Video #0
ID : 0
Format : MPEG-4 Visual
Format profile : Simple@L3
Format settings, BVOP : No
Format settings, QPel : No
Format settings, GMC : No warppoints
Format settings, Matrix : Default (H.263)
Codec ID : XVID
Codec ID/Hint : XviD
Duration : 33mn 42s
Bit rate : 938 Kbps
Width : 720 pixels
Height : 480 pixels
Display aspect ratio : 4:3
Frame rate : 29.970 fps
Standard : NTSC
Color space : YUV
Chroma subsampling : 4:2:0
Bit depth : 8 bits
Scan type : Progressive
Compression mode : Lossy
Bits/(Pixel*Frame) : 0.091
Stream size : 226 MiB (89%)
Writing library : XviD 1.2.1 (UTC 2008-12-04)
Audio #1
ID : 1
Format : MPEG Audio
Format version : Version 1
Format profile : Layer 3
Mode : Joint stereo
Mode extension : MS Stereo
Codec ID : 55
Codec ID/Hint : MP3
Duration : 26mn 23s
Bit rate mode : Constant
Bit rate : 128 Kbps
Channel(s) : 2 channels
Sampling rate : 44.1 KHz
Compression mode : Lossy
Stream size : 24.2 MiB (10%)
Alignment : Aligned on interleaves
Interleave, duration : 26 ms (0.78 video frame)
Interleave, preload duration : 6034 ms
General
Complete name : MILF Blown.avi
Format : AVI
Format/Info : Audio Video Interleave
File size : 86.9 MiB
Duration : 15mn 25s
Overall bit rate : 788 Kbps
Writing library : The File had been created by Solveig Multimedia AVI Writer
Video #0
ID : 0
Format : MPEG-4 Visual
Format profile : Advanced Simple@L5
Format settings, BVOP : 2
Format settings, QPel : No
Format settings, GMC : No warppoints
Format settings, Matrix : Custom
Muxing mode : Packed bitstream
Codec ID : XVID
Codec ID/Hint : XviD
Duration : 15mn 25s
Bit rate : 659 Kbps
Width : 576 pixels
Height : 432 pixels
Display aspect ratio : 4:3
Frame rate : 29.970 fps
Color space : YUV
Chroma subsampling : 4:2:0
Bit depth : 8 bits
Scan type : Progressive
Compression mode : Lossy
Bits/(Pixel*Frame) : 0.088
Stream size : 72.7 MiB (84%)
Writing library : XviD 1.0.3 (UTC 2004-12-20)
Audio #1
ID : 1
Format : MPEG Audio
Format version : Version 1
Format profile : Layer 3
Mode : Joint stereo
Mode extension : MS Stereo
Codec ID : 55
Codec ID/Hint : MP3
Duration : 11mn 29s
Bit rate mode : Variable
Bit rate : 160 Kbps
Channel(s) : 2 channels
Sampling rate : 48.0 KHz
Compression mode : Lossy
Stream size : 13.2 MiB (15%)
Alignment : Aligned on interleaves
Interleave, duration : 24 ms (0.72 video frame)
Interleave, preload duration : 5361 ms
General
Complete name : MILF Squirters 10.avi
Format : AVI
Format/Info : Audio Video Interleave
File size : 271 MiB
Duration : 36mn 33s
Overall bit rate : 1 037 Kbps
Writing library : The File had been created by Solveig Multimedia AVI Writer
Video #0
ID : 0
Format : MPEG-4 Visual
Format profile : Simple@L0
Format settings, BVOP : No
Format settings, QPel : No
Format settings, GMC : No warppoints
Format settings, Matrix : Default (H.263)
Codec ID : XVID
Codec ID/Hint : XviD
Duration : 36mn 33s
Bit rate : 937 Kbps
Width : 512 pixels
Height : 288 pixels
Display aspect ratio : 16:9
Frame rate : 29.970 fps
Color space : YUV
Chroma subsampling : 4:2:0
Bit depth : 8 bits
Scan type : Progressive
Compression mode : Lossy
Bits/(Pixel*Frame) : 0.212
Stream size : 245 MiB (90%)
Writing library : XviD 1.0.3 (UTC 2004-12-20)
Audio #1
ID : 1
Format : MPEG Audio
Format version : Version 1
Format profile : Layer 3
Mode : Joint stereo
Mode extension : MS Stereo
Codec ID : 55
Codec ID/Hint : MP3
Duration : 25mn 45s
Bit rate mode : Variable
Bit rate : 128 Kbps
Channel(s) : 2 channels
Sampling rate : 48.0 KHz
Compression mode : Lossy
Stream size : 23.6 MiB (9%)
Alignment : Aligned on interleaves
Interleave, duration : 24 ms (0.72 video frame)
Interleave, preload duration : 4911 ms
General
Complete name : MILF Worship 3.avi
Format : AVI
Format/Info : Audio Video Interleave
File size : 327 MiB
Duration : 24mn 44s
Overall bit rate : 1 849 Kbps
Video #0
ID : 0
Format : AVC
Format/Info : Advanced Video Codec
Format profile : Main@L2.1
Format settings, CABAC : Yes
Format settings, ReFrames : 1 frame
Codec ID : X264
Codec ID/Info : XiWave GNU GPL x264 MPEG-4
Duration : 24mn 44s
Bit rate : 1 708 Kbps
Width : 512 pixels
Height : 384 pixels
Display aspect ratio : 4:3
Frame rate mode : Variable
Frame rate : 29.970 fps
Color space : YUV
Chroma subsampling : 4:2:0
Bit depth : 8 bits
Scan type : Progressive
Bits/(Pixel*Frame) : 0.290
Stream size : 302 MiB (92%)
Audio #1
ID : 1
Format : MPEG Audio
Format version : Version 1
Format profile : Layer 3
Codec ID : 55
Codec ID/Hint : MP3
Duration : 24mn 44s
Bit rate mode : Constant
Bit rate : 128 Kbps
Channel(s) : 2 channels
Sampling rate : 44.1 KHz
Compression mode : Lossy
Stream size : 22.7 MiB (7%)
Alignment : Aligned on interleaves
Interleave, duration : 26 ms (0.78 video frame)
Interleave, preload duration : 1358 ms
Writing library : LAME3.98
General
Complete name : MilfHunter.com.wmv
Format : Windows Media
File size : 424 MiB
Duration : 47mn 25s
Overall bit rate mode : Constant
Overall bit rate : 1 250 Kbps
Maximum Overall bit rate : 1 262 Kbps
Movie name : RealityKings.com
Performer : Jeani
Encoded date : UTC 2008-02-04 20:44:12.700
Copyright : www.milfhunter.com
Comment : Maid For Servicing
Rating : Adults Only
Video #2
ID : 2
Format : VC-1
Format profile : MP@ML
Codec ID : WMV3
Codec ID/Info : Windows Media Video 9
Codec ID/Hint : WMV3
Description of the codec : Windows Media Video 9 - Professional
Duration : 47mn 25s
Bit rate mode : Constant
Bit rate : 1 200 Kbps
Width : 720 pixels
Height : 480 pixels
Display aspect ratio : 3:2
Frame rate : 30.000 fps
Standard : NTSC
Bit depth : 8 bits
Scan type : Progressive
Compression mode : Lossy
Bits/(Pixel*Frame) : 0.116
Stream size : 407 MiB (96%)
Audio #1
ID : 1
Format : WMA
Format version : Version 2
Codec ID : 161
Codec ID/Info : Windows Media Audio
Description of the codec : Windows Media Audio 9.2 - 48 kbps, 44 kHz, stereo 1-pass CBR
Duration : 47mn 25s
Bit rate mode : Constant
Bit rate : 48.0 Kbps
Channel(s) : 2 channels
Sampling rate : 44.1 KHz
Bit depth : 16 bits
Stream size : 16.3 MiB (4%)
General
Complete name : MilfLessons.com.wmv
Format : Windows Media
File size : 206 MiB
Duration : 27mn 24s
Overall bit rate mode : Constant
Overall bit rate : 1 049 Kbps
Maximum Overall bit rate : 1 061 Kbps
Encoded date : UTC 2007-06-13 16:14:46.769
SfOriginalFPS : 300000
Video #2
ID : 2
Format : WMV2
Codec ID : WMV2
Codec ID/Info : Windows Media Video 8
Description of the codec : Windows Media Video V8
Duration : 27mn 24s
Bit rate mode : Constant
Bit rate : 1 017 Kbps
Width : 640 pixels
Height : 480 pixels
Display aspect ratio : 4:3
Frame rate : 30.000 fps
Bit depth : 8 bits
Bits/(Pixel*Frame) : 0.110
Stream size : 199 MiB (97%)
Language : English (US)
Audio #1
ID : 1
Format : WMA
Format version : Version 2
Codec ID : 161
Codec ID/Info : Windows Media Audio
Description of the codec : Windows Media Audio 9.1 - 32 kbps, 44 kHz, stereo (A/V) 1-pass CBR
Duration : 27mn 24s
Bit rate mode : Constant
Bit rate : 32.0 Kbps
Channel(s) : 2 channels
Sampling rate : 44.1 KHz
Bit depth : 16 bits
Stream size : 6.27 MiB (3%)
Language : English (US)
General
Complete name : MILFs Like It Big 9.avi
Format : AVI
Format/Info : Audio Video Interleave
File size : 275 MiB
Duration : 47mn 26s
Overall bit rate : 810 Kbps
Writing library : The File had been created by Solveig Multimedia AVI Writer
Video #0
ID : 0
Format : MPEG-4 Visual
Format profile : Advanced Simple@L5
Format settings, BVOP : 2
Format settings, QPel : No
Format settings, GMC : No warppoints
Format settings, Matrix : Custom
Codec ID : XVID
Codec ID/Hint : XviD
Duration : 47mn 26s
Bit rate : 708 Kbps
Width : 576 pixels
Height : 320 pixels
Display aspect ratio : 16:9
Frame rate : 29.970 fps
Color space : YUV
Chroma subsampling : 4:2:0
Bit depth : 1 bit
Scan type : Progressive
Compression mode : Lossy
Bits/(Pixel*Frame) : 0.128
Stream size : 240 MiB (87%)
Writing library : XviD 1.2.1 (UTC 2008-12-04)
Audio #1
ID : 1
Format : MPEG Audio
Format version : Version 1
Format profile : Layer 3
Mode : Joint stereo
Mode extension : MS Stereo
Codec ID : 55
Codec ID/Hint : MP3
Duration : 33mn 57s
Bit rate mode : Variable
Bit rate : 128 Kbps
Channel(s) : 2 channels
Sampling rate : 48.0 KHz
Compression mode : Lossy
Stream size : 31.1 MiB (11%)
Alignment : Aligned on interleaves
Interleave, duration : 24 ms (0.72 video frame)
Interleave, preload duration : 21 ms
General
Complete name : MILFSoup.com.wmv
Format : Windows Media
File size : 182 MiB
Duration : 23mn 42s
Overall bit rate : 1 072 Kbps
Maximum Overall bit rate : 1 064 Kbps
Encoded date : UTC 2008-05-23 18:28:48.000
Writing application : Flip4Mac WMV Export Component for QuickTime (Mac) 2204
Video #2
ID : 2
Format : VC-1
Format profile : MP
Codec ID : WMV3
Codec ID/Info : Windows Media Video 9
Codec ID/Hint : WMV3
Description of the codec : Windows Media Video V9 - 640 x 480, 29.97 fps, 1000 kbps (CBR)
Duration : 23mn 42s
Bit rate : 1 000 Kbps
Width : 640 pixels
Height : 480 pixels
Display aspect ratio : 4:3
Frame rate : 29.970 fps
Bit depth : 8 bits
Scan type : Progressive
Compression mode : Lossy
Bits/(Pixel*Frame) : 0.109
Stream size : 170 MiB (93%)
Language : English (US)
Audio #1
ID : 1
Format : WMA
Format version : Version 2
Codec ID : 161
Codec ID/Info : Windows Media Audio
Description of the codec : Windows Media Audio V9 Standard - 64 kbps, 44 kHz, 16 bit, Stereo (CBR)
Duration : 23mn 42s
Bit rate mode : Constant
Bit rate : 64.0 Kbps
Channel(s) : 2 channels
Sampling rate : 44.1 KHz
Bit depth : 16 bits
Stream size : 10.9 MiB (6%)
Language : English (US)
General
Complete name : Mini Van Moms 11.avi
Format : AVI
Format/Info : Audio Video Interleave
File size : 118 MiB
Duration : 21mn 35s
Overall bit rate : 763 Kbps
Writing library : The File had been created by Solveig Multimedia AVI Writer
Video #0
ID : 0
Format : MPEG-4 Visual
Format profile : Advanced Simple@L5
Format settings, BVOP : 2
Format settings, QPel : No
Format settings, GMC : No warppoints
Format settings, Matrix : Custom
Muxing mode : Packed bitstream
Codec ID : XVID
Codec ID/Hint : XviD
Duration : 21mn 35s
Bit rate : 661 Kbps
Width : 512 pixels
Height : 384 pixels
Display aspect ratio : 4:3
Frame rate : 29.970 fps
Color space : YUV
Chroma subsampling : 4:2:0
Bit depth : 8 bits
Scan type : Progressive
Compression mode : Lossy
Bits/(Pixel*Frame) : 0.112
Stream size : 102 MiB (87%)
Writing library : XviD 1.0.3 (UTC 2004-12-20)
Audio #1
ID : 1
Format : MPEG Audio
Format version : Version 1
Format profile : Layer 3
Mode : Joint stereo
Mode extension : MS Stereo
Codec ID : 55
Codec ID/Hint : MP3
Duration : 15mn 30s
Bit rate mode : Variable
Bit rate : 128 Kbps
Channel(s) : 2 channels
Sampling rate : 48.0 KHz
Compression mode : Lossy
Stream size : 14.2 MiB (12%)
Alignment : Aligned on interleaves
Interleave, duration : 24 ms (0.72 video frame)
Interleave, preload duration : 27774 ms
Writing library : LAME3.90.3
General
Complete name : Momma Knows Best 4.mp4
Format : MPEG-4
Format profile : Base Media
Codec ID : isom
File size : 658 MiB
Duration : 31mn 30s
Overall bit rate : 2 921 Kbps
Writing application : Lavf52.18.0
Comment : FlixEngineLinux_8.0.12.0 (www.on2.com)
Video #1
ID : 1
Format : AVC
Format/Info : Advanced Video Codec
Format profile : Baseline@L3.1
Format settings, CABAC : No
Format settings, ReFrames : 1 frame
Codec ID : avc1
Codec ID/Info : Advanced Video Coding
Duration : 32mn 54s
Bit rate mode : Variable
Bit rate : 2 668 Kbps
Width : 720 pixels
Height : 540 pixels
Display aspect ratio : 4:3
Color space : YUV
Chroma subsampling : 4:2:0
Bit depth : 8 bits
Scan type : Progressive
Stream size : 628 MiB (95%)
Audio #2
ID : 2
Format : AAC
Format/Info : Advanced Audio Codec
Format profile : LC
Codec ID : 40
Duration : 31mn 30s
Bit rate mode : Variable
Bit rate : 128 Kbps
Channel(s) : 2 channels
Channel positions : Front: L R
Sampling rate : 48.0 KHz
Compression mode : Lossy
Stream size : 28.9 MiB (4%)
General
Complete name : Mommy Fucks Best 2.avi
Format : AVI
Format/Info : Audio Video Interleave
File size : 250 MiB
Duration : 41mn 23s
Overall bit rate : 845 Kbps
Writing library : The File had been created by Solveig Multimedia AVI Writer
Video #0
ID : 0
Format : MPEG-4 Visual
Format profile : Advanced Simple@L5
Format settings, BVOP : 2
Format settings, QPel : No
Format settings, GMC : No warppoints
Format settings, Matrix : Custom
Muxing mode : Packed bitstream
Codec ID : XVID
Codec ID/Hint : XviD
Duration : 41mn 23s
Bit rate : 748 Kbps
Width : 512 pixels
Height : 384 pixels
Display aspect ratio : 4:3
Frame rate : 29.970 fps
Color space : YUV
Chroma subsampling : 4:2:0
Bit depth : 8 bits
Scan type : Progressive
Compression mode : Lossy
Bits/(Pixel*Frame) : 0.127
Stream size : 221 MiB (88%)
Writing library : XviD 1.0.2 (UTC 2004-08-29)
Audio #1
ID : 1
Format : MPEG Audio
Format version : Version 1
Format profile : Layer 3
Mode : Dual mono
Codec ID : 55
Codec ID/Hint : MP3
Duration : 32mn 19s
Bit rate mode : Variable
Bit rate : 112 Kbps
Channel(s) : 2 channels
Sampling rate : 48.0 KHz
Compression mode : Lossy
Stream size : 25.9 MiB (10%)
Alignment : Aligned on interleaves
Interleave, duration : 24 ms (0.72 video frame)
Interleave, preload duration : 4566 ms
General
Complete name : Mother Suckers 3- scene 9.mp4
Format : MPEG-4
Format profile : Base Media
Codec ID : isom
File size : 691 MiB
Duration : 11mn 7s
Overall bit rate : 8 678 Kbps
Writing application : Lavf52.16.0
Comment : FlixEngineLinux_8.0.14.0 (www.on2.com)
Video #1
ID : 1
Format : AVC
Format/Info : Advanced Video Codec
Format profile : Baseline@L4.0
Format settings, CABAC : No
Format settings, ReFrames : 1 frame
Codec ID : avc1
Codec ID/Info : Advanced Video Coding
Duration : 11mn 36s
Bit rate mode : Variable
Bit rate : 8 197 Kbps
Width : 1 920 pixels
Height : 1 080 pixels
Display aspect ratio : 16:9
Color space : YUV
Chroma subsampling : 4:2:0
Bit depth : 8 bits
Scan type : Progressive
Stream size : 680 MiB (98%)
Audio #2
ID : 2
Format : AAC
Format/Info : Advanced Audio Codec
Format profile : LC
Codec ID : 40
Duration : 11mn 7s
Bit rate mode : Variable
Bit rate : 128 Kbps
Channel(s) : 2 channels
Channel positions : Front: L R
Sampling rate : 48.0 KHz
Compression mode : Lossy
Stream size : 10.2 MiB (1%)
General
Complete name : My Favorite MILF 2.avi
Format : AVI
Format/Info : Audio Video Interleave
File size : 258 MiB
Duration : 19mn 32s
Overall bit rate : 1 845 Kbps
Video #0
ID : 0
Format : AVC
Format/Info : Advanced Video Codec
Format profile : Main@L2.1
Format settings, CABAC : Yes
Format settings, ReFrames : 1 frame
Codec ID : X264
Codec ID/Info : XiWave GNU GPL x264 MPEG-4
Duration : 19mn 32s
Bit rate : 1 704 Kbps
Width : 512 pixels
Height : 384 pixels
Display aspect ratio : 4:3
Frame rate mode : Variable
Frame rate : 29.970 fps
Color space : YUV
Chroma subsampling : 4:2:0
Bit depth : 8 bits
Scan type : Progressive
Bits/(Pixel*Frame) : 0.289
Stream size : 238 MiB (92%)
Audio #1
ID : 1
Format : MPEG Audio
Format version : Version 1
Format profile : Layer 3
Codec ID : 55
Codec ID/Hint : MP3
Duration : 19mn 32s
Bit rate mode : Constant
Bit rate : 128 Kbps
Channel(s) : 2 channels
Sampling rate : 44.1 KHz
Compression mode : Lossy
Stream size : 17.9 MiB (7%)
Alignment : Aligned on interleaves
Interleave, duration : 26 ms (0.78 video frame)
Interleave, preload duration : 1358 ms
Writing library : LAME3.98
General
Complete name : My First Sex Teacher 10.VOB
Format : MPEG-PS
File size : 475 MiB
Duration : 18mn 10s
Overall bit rate : 3 654 Kbps
Video #224
ID : 224 (0xE0)
Format : MPEG Video
Format version : Version 2
Format profile : Main@Main
Format settings, BVOP : Yes
Format settings, Matrix : Default
Duration : 18mn 10s
Bit rate mode : Variable
Bit rate : 3 357 Kbps
Nominal bit rate : 4 393 Kbps
Width : 720 pixels
Height : 480 pixels
Display aspect ratio : 4:3
Frame rate : 29.970 fps
Standard : NTSC
Color space : YUV
Chroma subsampling : 4:2:0
Bit depth : 8 bits
Compression mode : Lossy
Bits/(Pixel*Frame) : 0.324
Stream size : 436 MiB (92%)
Audio #192
ID : 192 (0xC0)
Format : MPEG Audio
Format version : Version 1
Format profile : Layer 2
Duration : 18mn 10s
Bit rate mode : Constant
Bit rate : 224 Kbps
Channel(s) : 2 channels
Sampling rate : 48.0 KHz
Compression mode : Lossy
Stream size : 29.1 MiB (6%)
General
Complete name : Older Women Younger Man 10.avi
Format : AVI
Format/Info : Audio Video Interleave
File size : 177 MiB
Duration : 30mn 34s
Overall bit rate : 809 Kbps
Writing library : The File had been created by Solveig Multimedia AVI Writer
Video #0
ID : 0
Format : MPEG-4 Visual
Format profile : Advanced Simple@L5
Format settings, BVOP : 1
Format settings, QPel : No
Format settings, GMC : No warppoints
Format settings, Matrix : Custom
Codec ID : XVID
Codec ID/Hint : XviD
Duration : 30mn 34s
Bit rate : 681 Kbps
Width : 448 pixels
Height : 336 pixels
Display aspect ratio : 4:3
Frame rate : 29.970 fps
Color space : YUV
Chroma subsampling : 4:2:0
Bit depth : 8 bits
Scan type : Progressive
Compression mode : Lossy
Bits/(Pixel*Frame) : 0.151
Stream size : 149 MiB (84%)
Writing library : XviD 1.2.0.dev47 (UTC 2006-11-01)
Audio #1
ID : 1
Format : MPEG Audio
Format version : Version 1
Format profile : Layer 3
Mode : Joint stereo
Mode extension : MS Stereo
Codec ID : 55
Codec ID/Hint : MP3
Duration : 28mn 9s
Bit rate mode : Variable
Bit rate : 128 Kbps
Channel(s) : 2 channels
Sampling rate : 48.0 KHz
Compression mode : Lossy
Stream size : 25.8 MiB (15%)
Alignment : Aligned on interleaves
Interleave, duration : 24 ms (0.72 video frame)
Interleave, preload duration : 36 ms
General
Complete name : Only Mommy can Suck Dick.wmv
Format : Windows Media
File size : 344 MiB
Duration : 35mn 4s
Overall bit rate mode : Constant
Overall bit rate : 1 371 Kbps
Maximum Overall bit rate : 1 379 Kbps
Encoded date : UTC 2009-04-17 20:14:27.921
Video #2
ID : 2
Format : WMV2
Codec ID : WMV2
Codec ID/Info : Windows Media Video 8
Description of the codec : Windows Media Video V8
Duration : 35mn 4s
Bit rate mode : Constant
Bit rate : 1 300 Kbps
Width : 640 pixels
Height : 480 pixels
Display aspect ratio : 4:3
Frame rate : 29.970 fps
Bit depth : 8 bits
Bits/(Pixel*Frame) : 0.141
Stream size : 326 MiB (95%)
Language : English (CA)
Audio #1
ID : 1
Format : WMA
Format version : Version 2
Codec ID : 161
Codec ID/Info : Windows Media Audio
Description of the codec : Windows Media Audio 9.1 - 64 kbps, 44 kHz, stereo (A/V) 1-pass CBR
Duration : 35mn 4s
Bit rate mode : Constant
Bit rate : 64.0 Kbps
Channel(s) : 2 channels
Sampling rate : 44.1 KHz
Bit depth : 16 bits
Stream size : 16.1 MiB (5%)
Language : English (CA)
General
Complete name : Penthouse - Cougar Club The Hunt Is On.mkv
Format : Matroska
File size : 544 MiB
Duration : 9mn 28s
Overall bit rate : 8 020 Kbps
Writing application : libmatroska 1.4.1
Writing library : SolveigMM Matroska Muxer Version 1.0.1405.22
Video #1
ID : 1
Format : AVC
Format/Info : Advanced Video Codec
Format profile : High@L4.1
Format settings, CABAC : Yes
Format settings, ReFrames : 4 frames
Codec ID : V_MPEG4/ISO/AVC
Duration : 9mn 28s
Bit rate : 7 669 Kbps
Width : 1 920 pixels
Height : 1 080 pixels
Display aspect ratio : 16:9
Frame rate : 25.000 fps
Color space : YUV
Chroma subsampling : 4:2:0
Bit depth : 8 bits
Scan type : Progressive
Bits/(Pixel*Frame) : 0.148
Stream size : 520 MiB (96%)
Language : English
Color primaries : BT.709-5, BT.1361, IEC 61966-2-4, SMPTE RP177
Transfer characteristics : BT.709-5, BT.1361
Matrix coefficients : BT.709-5, BT.1361, IEC 61966-2-4 709, SMPTE RP177
Audio #2
ID : 2
Format : AC-3
Format/Info : Audio Coding 3
Mode extension : CM (complete main)
Codec ID : A_AC3
Duration : 9mn 28s
Bit rate mode : Constant
Bit rate : 192 Kbps
Channel(s) : 2 channels
Channel positions : Front: L R
Sampling rate : 48.0 KHz
Bit depth : 16 bits
Compression mode : Lossy
Stream size : 13.0 MiB (2%)
Language : English
General
Complete name : Penthouse - Statuesque.avi
Format : AVI
Format/Info : Audio Video Interleave
File size : 226 MiB
Duration : 27mn 5s
Overall bit rate : 1 168 Kbps
Writing library : The File had been created by Solveig Multimedia AVI Writer
Video #0
ID : 0
Format : MPEG-4 Visual
Format profile : Advanced Simple@L5
Format settings, BVOP : 1
Format settings, QPel : No
Format settings, GMC : No warppoints
Format settings, Matrix : Default (H.263)
Codec ID : XVID
Codec ID/Hint : XviD
Duration : 27mn 5s
Bit rate : 1 061 Kbps
Width : 720 pixels
Height : 416 pixels
Display aspect ratio : 16:9
Frame rate : 23.976 fps
Color space : YUV
Chroma subsampling : 4:2:0
Bit depth : 4 bits
Scan type : Progressive
Compression mode : Lossy
Bits/(Pixel*Frame) : 0.148
Stream size : 206 MiB (91%)
Writing library : XviD 1.2.1 (UTC 2008-12-04)
Audio #1
ID : 1
Format : MPEG Audio
Format version : Version 1
Format profile : Layer 3
Mode : Joint stereo
Codec ID : 55
Codec ID/Hint : MP3
Duration : 21mn 2s
Bit rate mode : Variable
Bit rate : 128 Kbps
Channel(s) : 2 channels
Sampling rate : 48.0 KHz
Compression mode : Lossy
Stream size : 19.3 MiB (9%)
Alignment : Aligned on interleaves
Interleave, duration : 24 ms (0.58 video frame)
General
Complete name : Penthouse Sexy Seductive Housewives.mkv
Format : Matroska
File size : 673 MiB
Duration : 12mn 35s
Overall bit rate : 7 472 Kbps
Writing application : libmatroska 1.4.1
Writing library : SolveigMM Matroska Muxer Version 1.0.1405.22
Video #1
ID : 1
Format : AVC
Format/Info : Advanced Video Codec
Format profile : High@L4.1
Format settings, CABAC : Yes
Format settings, ReFrames : 5 frames
Format settings, GOP : M=3, N=57
Codec ID : V_MPEG4/ISO/AVC
Duration : 12mn 35s
Bit rate : 7 131 Kbps
Width : 1 280 pixels
Height : 720 pixels
Display aspect ratio : 16:9
Frame rate : 25.000 fps
Color space : YUV
Chroma subsampling : 4:2:0
Bit depth : 8 bits
Scan type : Progressive
Bits/(Pixel*Frame) : 0.310
Stream size : 642 MiB (95%)
Language : English
Color primaries : BT.709-5, BT.1361, IEC 61966-2-4, SMPTE RP177
Transfer characteristics : BT.709-5, BT.1361
Matrix coefficients : BT.709-5, BT.1361, IEC 61966-2-4 709, SMPTE RP177
Audio #2
ID : 2
Format : AC-3
Format/Info : Audio Coding 3
Format profile : Dolby Digital
Mode extension : CM (complete main)
Codec ID : A_AC3
Duration : 12mn 35s
Bit rate mode : Constant
Bit rate : 192 Kbps
Channel(s) : 2 channels
Channel positions : Front: L R
Sampling rate : 48.0 KHz
Bit depth : 16 bits
Compression mode : Lossy
Delay relative to video : 1mn 5s
Stream size : 17.3 MiB (3%)
Language : English
General
Complete name : Penthouse Tits To Die For.mkv
Format : Matroska
File size : 901 MiB
Duration : 18mn 36s
Overall bit rate : 6 764 Kbps
Writing application : libmatroska 1.4.1
Writing library : SolveigMM Matroska Muxer Version 1.0.1405.22
Video #1
ID : 1
Format : AVC
Format/Info : Advanced Video Codec
Format profile : High@L4.1
Format settings, CABAC : Yes
Format settings, ReFrames : 5 frames
Codec ID : V_MPEG4/ISO/AVC
Duration : 18mn 36s
Bit rate : 6 437 Kbps
Width : 1 280 pixels
Height : 720 pixels
Display aspect ratio : 16:9
Frame rate : 25.000 fps
Color space : YUV
Chroma subsampling : 4:2:0
Bit depth : 8 bits
Scan type : Progressive
Bits/(Pixel*Frame) : 0.279
Stream size : 857 MiB (95%)
Language : English
Color primaries : BT.709-5, BT.1361, IEC 61966-2-4, SMPTE RP177
Transfer characteristics : BT.709-5, BT.1361
Matrix coefficients : BT.709-5, BT.1361, IEC 61966-2-4 709, SMPTE RP177
Audio #2
ID : 2
Format : AC-3
Format/Info : Audio Coding 3
Mode extension : CM (complete main)
Codec ID : A_AC3
Duration : 18mn 36s
Bit rate mode : Constant
Bit rate : 192 Kbps
Channel(s) : 2 channels
Channel positions : Front: L R
Sampling rate : 48.0 KHz
Bit depth : 16 bits
Compression mode : Lossy
Delay relative to video : 1mn 5s
Stream size : 25.6 MiB (3%)
Language : English
General
Complete name : Seasoned Players 5.wmv
Format : Windows Media
File size : 349 MiB
Duration : 22mn 7s
Overall bit rate mode : Constant
Overall bit rate : 2 205 Kbps
Maximum Overall bit rate : 2 487 Kbps
Encoded date : UTC 2015-10-01 13:32:03.102
Video #2
ID : 2
Format : VC-1
Format profile : MP@ML
Codec ID : WMV3
Codec ID/Info : Windows Media Video 9
Codec ID/Hint : WMV3
Description of the codec : Windows Media Video 9
Duration : 22mn 7s
Bit rate mode : Constant
Bit rate : 2 273 Kbps
Width : 512 pixels
Height : 384 pixels
Display aspect ratio : 4:3
Frame rate : 29.970 fps
Bit depth : 8 bits
Scan type : Progressive
Compression mode : Lossy
Bits/(Pixel*Frame) : 0.386
Stream size : 360 MiB
Language : Russian
Audio #1
ID : 1
Format : WMA
Format version : Version 2
Codec ID : 161
Codec ID/Info : Windows Media Audio
Description of the codec : Windows Media Audio 9.2 - 192 kbps, 48 kHz, stereo 1-pass CBR
Duration : 22mn 7s
Bit rate mode : Constant
Bit rate : 192 Kbps
Channel(s) : 2 channels
Sampling rate : 48.0 KHz
Bit depth : 16 bits
Stream size : 30.4 MiB (9%)
Language : Russian
General
Complete name : Seduced By A Cougar 4.avi
Format : AVI
Format/Info : Audio Video Interleave
File size : 313 MiB
Duration : 23mn 58s
Overall bit rate : 1 826 Kbps
Video #0
ID : 0
Format : AVC
Format/Info : Advanced Video Codec
Format profile : Main@L2.1
Format settings, CABAC : Yes
Format settings, ReFrames : 1 frame
Codec ID : X264
Codec ID/Info : XiWave GNU GPL x264 MPEG-4
Duration : 23mn 58s
Bit rate : 1 685 Kbps
Width : 512 pixels
Height : 384 pixels
Display aspect ratio : 4:3
Frame rate mode : Variable
Frame rate : 29.970 fps
Color space : YUV
Chroma subsampling : 4:2:0
Bit depth : 8 bits
Scan type : Progressive
Bits/(Pixel*Frame) : 0.286
Stream size : 289 MiB (92%)
Audio #1
ID : 1
Format : MPEG Audio
Format version : Version 1
Format profile : Layer 3
Codec ID : 55
Codec ID/Hint : MP3
Duration : 23mn 58s
Bit rate mode : Constant
Bit rate : 128 Kbps
Channel(s) : 2 channels
Sampling rate : 44.1 KHz
Compression mode : Lossy
Stream size : 22.0 MiB (7%)
Alignment : Aligned on interleaves
Interleave, duration : 26 ms (0.78 video frame)
Interleave, preload duration : 1358 ms
Writing library : LAME3.98
General
Complete name : Tilf 2.avi
Format : AVI
Format/Info : Audio Video Interleave
File size : 284 MiB
Duration : 42mn 8s
Overall bit rate : 941 Kbps
Writing library : The File had been created by Solveig Multimedia AVI Writer
Video #0
ID : 0
Format : MPEG-4 Visual
Format profile : Advanced Simple@L5
Format settings, BVOP : 2
Format settings, QPel : No
Format settings, GMC : No warppoints
Format settings, Matrix : Custom
Codec ID : XVID
Codec ID/Hint : XviD
Duration : 42mn 8s
Bit rate : 863 Kbps
Width : 576 pixels
Height : 320 pixels
Display aspect ratio : 16:9
Frame rate : 23.976 fps
Color space : YUV
Chroma subsampling : 4:2:0
Bit depth : 8 bits
Scan type : Progressive
Compression mode : Lossy
Bits/(Pixel*Frame) : 0.195
Stream size : 260 MiB (92%)
Writing library : XviD 1.1.2 (UTC 2006-11-01)
Audio #1
ID : 1
Format : MPEG Audio
Format version : Version 1
Format profile : Layer 3
Mode : Joint stereo
Mode extension : MS Stereo
Codec ID : 55
Codec ID/Hint : MP3
Duration : 23mn 27s
Bit rate mode : Variable
Bit rate : 128 Kbps
Channel(s) : 2 channels
Sampling rate : 48.0 KHz
Compression mode : Lossy
Stream size : 21.5 MiB (8%)
Alignment : Aligned on interleaves
Interleave, duration : 24 ms (0.58 video frame)
General
Complete name : Victoria 1.avi
Format : AVI
Format/Info : Audio Video Interleave
File size : 90.3 MiB
Duration : 17mn 37s
Overall bit rate : 716 Kbps
Video #0
ID : 0
Format : MPEG-4 Visual
Codec ID : XVID
Codec ID/Hint : XviD
Duration : 17mn 37s
Bit rate : 590 Kbps
Width : 512 pixels
Height : 288 pixels
Display aspect ratio : 16:9
Frame rate : 29.970 fps
Color space : YUV
Chroma subsampling : 4:2:0
Compression mode : Lossy
Bits/(Pixel*Frame) : 0.134
Stream size : 74.4 MiB (82%)
Audio #1
ID : 1
Format : MPEG Audio
Codec ID : 55
Codec ID/Hint : MP3
Duration : 17mn 37s
Bit rate : 112 Kbps
Channel(s) : 2 channels
Sampling rate : 48.0 KHz
Compression mode : Lossy
Stream size : 13.5 MiB (15%)
Alignment : Aligned on interleaves
Interleave, duration : 24 ms (0.72 video frame)
General
Complete name : Victoria 2.wmv
Format : Windows Media
File size : 180 MiB
Duration : 27mn 11s
Overall bit rate mode : Constant
Overall bit rate : 927 Kbps
Maximum Overall bit rate : 933 Kbps
Movie name : HubbyWatchesWife.com
Performer : HubbyWatchesWife.com
Encoded date : UTC 2008-05-20 14:29:06.874
Copyright : HubbyWatchesWife.com
Comment : HubbyWatchesWife.com
Rating : xxx
SfOriginalFPS : 300000
Engineer : HubbyWatchesWife.com
Video #2
ID : 2
Format : VC-1
Format profile : MP@ML
Codec ID : WMV3
Codec ID/Info : Windows Media Video 9
Codec ID/Hint : WMV3
Description of the codec : Windows Media Video 9
Duration : 27mn 11s
Bit rate mode : Constant
Bit rate : 858 Kbps
Width : 560 pixels
Height : 420 pixels
Display aspect ratio : 4:3
Frame rate : 30.000 fps
Bit depth : 8 bits
Scan type : Progressive
Compression mode : Lossy
Bits/(Pixel*Frame) : 0.122
Stream size : 167 MiB (93%)
Language : English (US)
Audio #1
ID : 1
Format : WMA
Format version : Version 2
Codec ID : 161
Codec ID/Info : Windows Media Audio
Description of the codec : Windows Media Audio 9.2 - 64 kbps, 44 kHz, stereo (A/V) 1-pass CBR
Duration : 27mn 11s
Bit rate mode : Constant
Bit rate : 64.0 Kbps
Channel(s) : 2 channels
Sampling rate : 44.1 KHz
Bit depth : 16 bits
Stream size : 12.5 MiB (7%)
Language : English (US)
General
Complete name : victoria and micah.wmv
Format : Windows Media
File size : 533 MiB
Duration : 34mn 32s
Overall bit rate mode : Variable
Overall bit rate : 2 157 Kbps
Maximum Overall bit rate : 7 606 Kbps
Encoded date : UTC 2007-05-04 23:26:28.359
Video #2
ID : 2
Format : VC-1
Format profile : MP@ML
Codec ID : WMV3
Codec ID/Info : Windows Media Video 9
Codec ID/Hint : WMV3
Description of the codec : Windows Media Video 9 - Professional
Duration : 34mn 32s
Bit rate mode : Variable
Bit rate : 2 003 Kbps
Width : 640 pixels
Height : 480 pixels
Display aspect ratio : 4:3
Frame rate : 29.970 fps
Bit depth : 8 bits
Scan type : Progressive
Compression mode : Lossy
Bits/(Pixel*Frame) : 0.218
Stream size : 495 MiB (93%)
Language : English (US)
Audio #1
ID : 1
Format : WMA
Format version : Version 2
Codec ID : 161
Codec ID/Info : Windows Media Audio
Description of the codec : Windows Media Audio 9.1 - 96 kbps, 44 kHz, stereo 2-pass CBR
Duration : 34mn 32s
Bit rate mode : Constant
Bit rate : 96.0 Kbps
Channel(s) : 2 channels
Sampling rate : 44.1 KHz
Bit depth : 16 bits
Stream size : 23.7 MiB (4%)
Language : English (US)
General
Complete name : Victoria Valentina Big, firm and natural.mp4
Format : MPEG-4
Format profile : Base Media
Codec ID : isom
File size : 253 MiB
Duration : 28mn 38s
Overall bit rate : 1 233 Kbps
Video #1
ID : 1
Format : AVC
Format/Info : Advanced Video Codec
Format profile : Baseline@L1.3
Format settings, CABAC : No
Format settings, ReFrames : 1 frame
Codec ID : avc1
Codec ID/Info : Advanced Video Coding
Duration : 28mn 38s
Bit rate mode : Variable
Bit rate : 1 100 Kbps
Width : 640 pixels
Height : 480 pixels
Display aspect ratio : 4:3
Frame rate mode : Variable
Frame rate : 29.970 fps
Minimum frame rate : 14.985 fps
Maximum frame rate : 29.970 fps
Color space : YUV
Chroma subsampling : 4:2:0
Bit depth : 8 bits
Scan type : Progressive
Bits/(Pixel*Frame) : 0.119
Stream size : 225 MiB (89%)
Audio #2
ID : 2
Format : AAC
Format/Info : Advanced Audio Codec
Format profile : LC
Codec ID : 40
Duration : 28mn 38s
Bit rate mode : Variable
Bit rate : 128 Kbps
Channel(s) : 2 channels
Channel positions : Front: L R
Sampling rate : 48.0 KHz
Compression mode : Lossy
Stream size : 26.2 MiB (10%)
General
Complete name : Victoria Valentina-Snake her Drain.wmv
Format : Windows Media
File size : 331 MiB
Duration : 30mn 46s
Overall bit rate mode : Constant
Overall bit rate : 1 505 Kbps
Maximum Overall bit rate : 1 515 Kbps
Movie name : CougarsInHeat.com
Performer : NationalPornographic.com
Encoded date : UTC 2008-03-06 05:38:22.843
Copyright : NationalPornographic.com
Comment : Horny mature cougar in heat, Victoria, gets fucked by a younger guy!
Rating : Adult
Video #2
ID : 2
Format : VC-1
Format profile : MP@HL
Codec ID : WMV3
Codec ID/Info : Windows Media Video 9
Codec ID/Hint : WMV3
Description of the codec : Windows Media Video 9 - Professional
Duration : 30mn 46s
Bit rate mode : Constant
Bit rate : 1 372 Kbps
Width : 960 pixels
Height : 540 pixels
Display aspect ratio : 16:9
Frame rate : 29.970 fps
Bit depth : 8 bits
Scan type : Progressive
Compression mode : Lossy
Bits/(Pixel*Frame) : 0.088
Stream size : 302 MiB (91%)
Audio #1
ID : 1
Format : WMA
Format version : Version 2
Codec ID : 161
Codec ID/Info : Windows Media Audio
Description of the codec : Windows Media Audio 9.2 - 128 kbps, 48 kHz, stereo 1-pass CBR
Duration : 30mn 46s
Bit rate mode : Constant
Bit rate : 128 Kbps
Channel(s) : 2 channels
Sampling rate : 48.0 KHz
Bit depth : 16 bits
Stream size : 28.2 MiB (9%)
General
Complete name : Victoria Valentino Moms Gone Wild.avi
Format : AVI
Format/Info : Audio Video Interleave
File size : 335 MiB
Duration : 31mn 18s
Overall bit rate : 1 494 Kbps
Writing library : VirtualDub build 32817/release
Video #0
ID : 0
Format : MPEG-4 Visual
Format profile : Advanced Simple@L5
Format settings, BVOP : 2
Format settings, QPel : No
Format settings, GMC : No warppoints
Format settings, Matrix : Default (H.263)
Codec ID : XVID
Codec ID/Hint : XviD
Duration : 31mn 18s
Bit rate : 1 429 Kbps
Width : 576 pixels
Height : 432 pixels
Display aspect ratio : 4:3
Frame rate : 25.000 fps
Color space : YUV
Chroma subsampling : 4:2:0
Bit depth : 8 bits
Scan type : Progressive
Compression mode : Lossy
Bits/(Pixel*Frame) : 0.230
Stream size : 320 MiB (96%)
Writing library : XviD 1.2.1 (UTC 2008-12-04)
Audio #1
ID : 1
Format : MPEG Audio
Format version : Version 2
Format profile : Layer 3
Mode : Joint stereo
Mode extension : Intensity Stereo + MS Stereo
Codec ID : 55
Codec ID/Hint : MP3
Duration : 31mn 18s
Bit rate mode : Constant
Bit rate : 56.0 Kbps
Channel(s) : 2 channels
Sampling rate : 24.0 KHz
Compression mode : Lossy
Stream size : 12.5 MiB (4%)
Alignment : Split accross interleaves
Interleave, duration : 40 ms (1.00 video frame)
Interleave, preload duration : 500 ms
General
Complete name : Victoria Valentino Sex and Music.wmv
Format : Windows Media
File size : 269 MiB
Duration : 35mn 9s
Overall bit rate : 1 071 Kbps
Maximum Overall bit rate : 1 062 Kbps
Encoded date : UTC 2008-08-08 21:07:20.000
Writing application : Flip4Mac WMV Export Component for QuickTime (Mac) 2204
Video #2
ID : 2
Format : VC-1
Format profile : MP
Codec ID : WMV3
Codec ID/Info : Windows Media Video 9
Codec ID/Hint : WMV3
Description of the codec : Windows Media Video V9 - 640 x 480, 29.97 fps, 1000 kbps (CBR)
Duration : 35mn 9s
Bit rate : 998 Kbps
Width : 640 pixels
Height : 480 pixels
Display aspect ratio : 4:3
Frame rate : 29.970 fps
Bit depth : 8 bits
Scan type : Progressive
Compression mode : Lossy
Bits/(Pixel*Frame) : 0.108
Stream size : 251 MiB (93%)
Language : English (US)
Audio #1
ID : 1
Format : WMA
Format version : Version 2
Codec ID : 161
Codec ID/Info : Windows Media Audio
Description of the codec : Windows Media Audio V9 Standard - 64 kbps, 44 kHz, 16 bit, Stereo (CBR)
Duration : 35mn 9s
Bit rate mode : Constant
Bit rate : 64.0 Kbps
Channel(s) : 2 channels
Sampling rate : 44.1 KHz
Bit depth : 16 bits
Stream size : 16.1 MiB (6%)
Language : English (US)
General
Complete name : Victoria Valentino.wmv
Format : Windows Media
File size : 195 MiB
Duration : 18mn 12s
Overall bit rate mode : Constant
Overall bit rate : 1 494 Kbps
Maximum Overall bit rate : 1 515 Kbps
Encoded date : UTC 2007-10-20 11:51:54.296
Video #2
ID : 2
Format : VC-1
Format profile : MP@ML
Codec ID : WMV3
Codec ID/Info : Windows Media Video 9
Codec ID/Hint : WMV3
Description of the codec : Windows Media Video 9 - Professional
Duration : 18mn 12s
Bit rate mode : Constant
Bit rate : 1 372 Kbps
Width : 640 pixels
Height : 480 pixels
Display aspect ratio : 4:3
Frame rate : 29.970 fps
Bit depth : 8 bits
Scan type : Progressive
Compression mode : Lossy
Bits/(Pixel*Frame) : 0.149
Stream size : 179 MiB (92%)
Audio #1
ID : 1
Format : WMA
Format version : Version 2
Codec ID : 161
Codec ID/Info : Windows Media Audio
Description of the codec : Windows Media Audio 9.2 - 128 kbps, 44 kHz, stereo 1-pass CBR
Duration : 18mn 12s
Bit rate mode : Constant
Bit rate : 128 Kbps
Channel(s) : 2 channels
Sampling rate : 44.1 KHz
Bit depth : 16 bits
Stream size : 16.7 MiB (9%)
General
Complete name : Victoria Valentino-No Funny Name, Just a Hot Ass Cougar Slut.wmv
Format : MPEG-4
Format profile : QuickTime
Codec ID : qt
File size : 247 MiB
Duration : 26mn 31s
Overall bit rate : 1 304 Kbps
Encoded date : UTC 2007-04-18 12:16:59
Tagged date : UTC 2007-04-18 12:17:05
Writing library : Apple QuickTime
Video #2
ID : 2
Format : AVC
Format/Info : Advanced Video Codec
Format profile : Main@L3.1
Format settings, CABAC : No
Format settings, ReFrames : 2 frames
Codec ID : avc1
Codec ID/Info : Advanced Video Coding
Duration : 26mn 31s
Bit rate mode : Variable
Bit rate : 1 234 Kbps
Width : 960 pixels
Height : 540 pixels
Display aspect ratio : 16:9
Frame rate mode : Constant
Frame rate : 29.970 fps
Color space : YUV
Chroma subsampling : 4:2:0
Bit depth : 8 bits
Scan type : Progressive
Bits/(Pixel*Frame) : 0.079
Stream size : 234 MiB (95%)
Language : English
Encoded date : UTC 2007-04-18 10:58:03
Tagged date : UTC 2007-04-18 12:17:05
Color primaries : BT.709-5, BT.1361, IEC 61966-2-4, SMPTE RP177
Transfer characteristics : BT.709-5, BT.1361
Matrix coefficients : BT.709-5, BT.1361, IEC 61966-2-4 709, SMPTE RP177
Audio #1
ID : 1
Format : AAC
Format/Info : Advanced Audio Codec
Format profile : LC
Codec ID : 40
Duration : 26mn 31s
Bit rate mode : Constant
Bit rate : 64.0 Kbps
Channel(s) : 2 channels
Channel positions : Front: L R
Sampling rate : 32.0 KHz
Compression mode : Lossy
Stream size : 12.1 MiB (5%)
Language : English
Encoded date : UTC 2007-04-18 10:58:03
Tagged date : UTC 2007-04-18 12:17:05
General
Complete name : Wank My Wood - Busty Brunette Victoria Wanks Some Wood.mp4
Format : MPEG-4
Codec ID : M4V
File size : 159 MiB
Duration : 18mn 1s
Overall bit rate : 1 234 Kbps
Encoded date : UTC 2015-04-11 23:15:12
Tagged date : UTC 2015-04-11 23:15:12
Video #1
ID : 1
Format : AVC
Format/Info : Advanced Video Codec
Format profile : Main@L3.1
Format settings, CABAC : Yes
Format settings, ReFrames : 2 frames
Codec ID : avc1
Codec ID/Info : Advanced Video Coding
Duration : 18mn 1s
Bit rate mode : Variable
Bit rate : 1 100 Kbps
Maximum bit rate : 1 210 Kbps
Width : 854 pixels
Height : 480 pixels
Display aspect ratio : 16:9
Frame rate mode : Constant
Frame rate : 29.970 fps
Color space : YUV
Chroma subsampling : 4:2:0
Bit depth : 8 bits
Scan type : Progressive
Bits/(Pixel*Frame) : 0.090
Stream size : 142 MiB (89%)
Encoded date : UTC 2015-04-11 23:15:12
Tagged date : UTC 2015-04-11 23:15:12
Audio #2
ID : 2
Format : AAC
Format/Info : Advanced Audio Codec
Format profile : LC
Codec ID : 40
Duration : 18mn 1s
Bit rate mode : Variable
Bit rate : 128 Kbps
Maximum bit rate : 129 Kbps
Channel(s) : 2 channels
Channel positions : Front: L R
Sampling rate : 44.1 KHz
Compression mode : Lossy
Stream size : 16.2 MiB (10%)
Encoded date : UTC 2015-04-11 23:15:12
Tagged date : UTC 2015-04-11 23:15:12
General
Complete name : You fired.wmv
Format : Windows Media
File size : 322 MiB
Duration : 28mn 57s
Overall bit rate : 1 554 Kbps
Maximum Overall bit rate : 1 545 Kbps
Encoded date : UTC 2009-03-12 03:56:12.000
Writing application : Flip4Mac WMV Export Component for QuickTime (Mac) 2211
Video #2
ID : 2
Format : VC-1
Format profile : MP
Codec ID : WMV3
Codec ID/Info : Windows Media Video 9
Codec ID/Hint : WMV3
Description of the codec : Windows Media Video V9 - 720 x 406, 30.00 fps, 1500 kbps (CBR)
Duration : 28mn 57s
Bit rate : 1 497 Kbps
Width : 720 pixels
Height : 406 pixels
Display aspect ratio : 16:9
Frame rate : 30.000 fps
Bit depth : 8 bits
Scan type : Progressive
Compression mode : Lossy
Bits/(Pixel*Frame) : 0.171
Stream size : 310 MiB (96%)
Language : English (US)
Audio #1
ID : 1
Format : WMA
Format version : Version 2
Codec ID : 161
Codec ID/Info : Windows Media Audio
Description of the codec : Windows Media Audio V9 Standard - 48 kbps, 44 kHz, 16 bit, Stereo (CBR)
Duration : 28mn 57s
Bit rate mode : Constant
Bit rate : 48.0 Kbps
Channel(s) : 2 channels
Sampling rate : 44.1 KHz
Bit depth : 16 bits
Stream size : 9.95 MiB (3%)
Language : English (US)
General
Complete name : You Fucked My Mommy 2.avi
Format : AVI
Format/Info : Audio Video Interleave
File size : 354 MiB
Duration : 21mn 25s
Overall bit rate : 2 309 Kbps
Video #0
ID : 0
Format : AVC
Format/Info : Advanced Video Codec
Format profile : Main@L3.0
Format settings, CABAC : Yes
Format settings, ReFrames : 1 frame
Codec ID : X264
Codec ID/Info : XiWave GNU GPL x264 MPEG-4
Duration : 21mn 25s
Bit rate : 2 167 Kbps
Width : 576 pixels
Height : 432 pixels
Display aspect ratio : 4:3
Frame rate mode : Variable
Frame rate : 29.970 fps
Color space : YUV
Chroma subsampling : 4:2:0
Bit depth : 8 bits
Scan type : Progressive
Bits/(Pixel*Frame) : 0.291
Stream size : 332 MiB (94%)
Audio #1
ID : 1
Format : MPEG Audio
Format version : Version 1
Format profile : Layer 3
Codec ID : 55
Codec ID/Hint : MP3
Duration : 21mn 25s
Bit rate mode : Constant
Bit rate : 128 Kbps
Channel(s) : 2 channels
Sampling rate : 44.1 KHz
Compression mode : Lossy
Stream size : 19.6 MiB (6%)
Alignment : Aligned on interleaves
Interleave, duration : 26 ms (0.78 video frame)
Interleave, preload duration : 1358 ms
Writing library : LAME3.98
General
Complete name : You Got A Mother Thing Cumming.wmv
Format : Windows Media
File size : 413 MiB
Duration : 22mn 38s
Overall bit rate mode : Constant
Overall bit rate : 2 549 Kbps
Maximum Overall bit rate : 2 821 Kbps
Encoded date : UTC 2015-10-01 12:59:11.271
Video #2
ID : 2
Format : VC-1
Format profile : MP@ML
Codec ID : WMV3
Codec ID/Info : Windows Media Video 9
Codec ID/Hint : WMV3
Description of the codec : Windows Media Video 9
Duration : 22mn 38s
Bit rate mode : Constant
Bit rate : 2 605 Kbps
Width : 640 pixels
Height : 352 pixels
Display aspect ratio : 16:9
Frame rate : 29.970 fps
Bit depth : 8 bits
Scan type : Progressive
Compression mode : Lossy
Bits/(Pixel*Frame) : 0.386
Stream size : 422 MiB
Language : Russian
Audio #1
ID : 1
Format : WMA
Format version : Version 2
Codec ID : 161
Codec ID/Info : Windows Media Audio
Description of the codec : Windows Media Audio 9.2 - 192 kbps, 48 kHz, stereo 1-pass CBR
Duration : 22mn 38s
Bit rate mode : Constant
Bit rate : 192 Kbps
Channel(s) : 2 channels
Sampling rate : 48.0 KHz
Bit depth : 16 bits
Stream size : 31.1 MiB (8%)
Language : Russian
Трекер:  [ 22-Окт-2015 03:30 ]

Размер .torrent файла 106 KB


Размер: 2 GB
Хэш (hash) релиза: 204da12a8bf130c56b492253d3baae4696690cc8
Подписка на обновления:

Торренты, похожие на Victoria Valentino скачать торрент

Форум Название Автор Размер S L Добавлен
Сайтрипы 1991-2010 / SiteRip's 1991-2010 ·· Victoria Valentino (May I Please Have My Balls Back / ms4447) [2008 г., All sex, CamRip] Sakura 191960984183 MB 0 0 1383933259

21:54

8-Ноя-13

Сайтрипы 1991-2010 / SiteRip's 1991-2010 ·· Victoria Valentino [2008 г., MILF, All Sex, SiteRip] Sakura 203956041195 MB 0 0 1383931684

21:28

8-Ноя-13

Сайтрипы 1991-2010 / SiteRip's 1991-2010 ·· Victoria Valentino (Maid for servicing) [2008 г., All sex, CamRip] Sakura 445568068425 MB 0 0 1383919837

18:10

8-Ноя-13

Сайтрипы 1991-2010 / SiteRip's 1991-2010 ·· Victoria Valentino (No Funny Name, Just a Hot Ass Cougar Slut) [2007 г., All Sex,Milf] Sakura 260303937248 MB 0 0 1383904054

13:47

8-Ноя-13

Сайтрипы 1991-2010 / SiteRip's 1991-2010 ·· Victoria Valentino (Caught Between a Cock and a Hard Case) / Грудастая мамочка соблазнила мужика [2009 г., All sex, Big Tits, SiteRip] Sakura 559666458534 MB 0 0 1383898676

12:17

8-Ноя-13

Сайтрипы 1991-2010 / SiteRip's 1991-2010 ·· Victoria Valentino (Getting Ahead In School / ml3498) [2007 г., All sex, CamRip] Sakura 216807597207 MB 0 0 1383896821

11:47

8-Ноя-13

Сайтрипы 1991-2010 / SiteRip's 1991-2010 ·· Victoria Valentino (Yoga Practice / btra4094) [2008 г., All sex, CamRip] Sakura 341633549326 MB 0 0 1383895234

11:20

8-Ноя-13

Сайтрипы 1991-2010 / SiteRip's 1991-2010 ·· Victoria Valentino (сцена из "On The Couch") Vivid [2009, Sex, BD Remux, 1080p] Sakura 32636313603.04 GB 0 0 1375030444

20:54

28-Июл-13

Сайтрипы 1991-2010 / SiteRip's 1991-2010 ·· [MILFSFilled.com / InternalPass.com] Diana Doll / Kayla Synz / Monica Mayhem / Victoria Valentino [2008 г., All Sex, Oral, Milf, HDTV] Sakura 18685171261.74 GB 0 0 1375022635

18:43

28-Июл-13

Сайтрипы 1991-2010 / SiteRip's 1991-2010 ·· Victoria Valentino (Your Fired! / ms5510) [2009г., Handjob, Facial, Cumshot, Blowjob, Enhanced Tits, Brunette, White, Pornstar, Hardcore, Swallow, Milf, 720p] Sakura 673877492643 MB 0 0 1375007131

14:25

28-Июл-13

Сайтрипы 1991-2010 / SiteRip's 1991-2010 ·· Victoria Valentino (Steps Out!) [2010 г., All Sex, Straight, Big Tits, 720p] Sakura 704870519672 MB 0 0 1375001928

12:58

28-Июл-13

Еще никто не оставлял запись к записи скачать торрент Victoria Valentino . Будь первым!

!Обратная связь
//main.js show_panel