Статистика раздачи
Размер:  1.82 GB   |    Зарегистрирован:  2 года   |    .torrent скачан:  403 раза   |   

Пиры будут получены при скачивании

 

Скачать порно Taboo 4 / Табу 4 через торрент бесплатно :: UnionPron.org

 
 
Автор Сообщение

Sakura

avatar Sakura


Taboo 4 / Taboo 4: The Younger Generation / Табу 4

Год производства: 1985 г.
Страна: USA
Жанр: classic, rеtro, feature, incest, mature
Продолжительность: 01:46:13
Язык: Русский

Режиссер: Kirdy Stevens
Студия: Standard Video

В ролях: Ginger Lynn, John Leslie, Kay Parker, Steve Arthur, Jerry Butler, Robin Cannes, Jamie Gillis, Kevin James, Craig Roberts, Ami Rogers, Joey Silvera, Karen Summer, Cyndee Summers, Honey Wilder

Описание: Это история о низменных страстях и похоти, пронизывающей внешне благополучные семьи. Вы сможете наблюдать за соблазнением членов семьи, которых затянет в вихрь извращений и кровосмешения.

[url=...1718082]DVD9[/url]



Качество видео: DVDRip-AVC
Формат видео: MP4
Видео: x264, 704x536, 23,976 кадра/сек, 2258 Кбит/сек, 0.250
Аудио: AC-3, 48,0 КГц, 2 канала, 192 Кбит/сек
http://www.iafd.com/title.rme/title=taboo+4/year=1985/taboo-4.htm

AFAA Awards, 1985
Winner: Best Supporting Actor, John Leslie

http://www.imdb.com/title/tt0134988/awards?ref_=tt_awd
AVNA Awards, 1986
Winner: Best Total Sexual Content in a Feature Film
Полное имя : H:\Taboo 4 (1985).mp4
Формат : MPEG-4
Профиль формата : Base Media
Идентификатор кодека : isom
Размер файла : 1,82 Гбайт
Продолжительность : 1 ч. 46 м.
Общий поток : 2451 Кбит/сек
Дата кодирования : UTC 2015-10-15 09:18:52
Дата пометки : UTC 2015-10-15 09:18:52

Видео
Идентификатор : 1
Формат : AVC
Формат/Информация : Advanced Video Codec
Профиль формата : High@L3.1
Параметр CABAC формата : Да
Параметр ReFrames формата : 8 кадров
Идентификатор кодека : avc1
Идентификатор кодека/Информация : Advanced Video Coding
Продолжительность : 1 ч. 46 м.
Битрейт : 2258 Кбит/сек
Максимальный битрейт : 5232 Кбит/сек
Ширина : 704 пикселя
Высота : 536 пикселей
Соотношение сторон : 4:3
Режим частоты кадров : Постоянный
Частота кадров : 23,976 кадра/сек
Цветовое пространство : YUV
Субдискретизация насыщенности : 4:2:0
Битовая глубина : 8 бит
Тип развёртки : Прогрессивная
Бит/(Пиксели*Кадры) : 0.250
Размер потока : 1,68 Гбайт (92%)
Библиотека кодирования : x264 core 148 r2597 e86f3a1
Настройки программы : cabac=1 / ref=8 / deblock=1:0:0 / analyse=0x3:0x113 / me=umh / subme=9 / psy=1 / psy_rd=1.00:0.00 / mixed_ref=1 / me_range=16 / chroma_me=1 / trellis=2 / 8x8dct=1 / cqm=0 / deadzone=21,11 / fast_pskip=1 / chroma_qp_offset=-2 / threads=4 / lookahead_threads=1 / sliced_threads=0 / nr=0 / decimate=0 / interlaced=0 / bluray_compat=0 / constrained_intra=0 / bframes=5 / b_pyramid=2 / b_adapt=2 / b_bias=0 / direct=1 / weightb=1 / open_gop=0 / weightp=2 / keyint=250 / keyint_min=23 / scenecut=40 / intra_refresh=0 / rc_lookahead=60 / rc=crf / mbtree=1 / crf=18.5 / qcomp=0.75 / qpmin=0 / qpmax=69 / qpstep=4 / ip_ratio=1.40 / aq=1:1.00
Дата кодирования : UTC 2015-10-15 09:18:52
Дата пометки : UTC 2015-10-15 09:19:28

Аудио
Идентификатор : 2
Формат : AC-3
Формат/Информация : Audio Coding 3
Расширение режима : CM (complete main)
Параметр Endianness формата : Big
Идентификатор кодека : ac-3
Продолжительность : 1 ч. 45 м.
Вид битрейта : Постоянный
Битрейт : 192 Кбит/сек
Каналы : 2 канала
Расположение каналов : Front: L R
Частота : 48,0 КГц
Битовая глубина : 16 бит
Метод сжатия : С потерями
Размер потока : 145 Мбайт (8%)
Дата кодирования : UTC 2015-10-15 09:19:21
Дата пометки : UTC 2015-10-15 09:19:28
Scene 1. Ginger Lynn, Karen Summer, Francois
Scene 2. Honey Wilder, Kevin James
Scene 3. Cyndee Summers, John Leslie
Scene 4. Kay Parker, Mike Ranger
Scene 5. Karen Summer, Joey Silvera
Scene 6. Karen Summer, John Leslie
Scene 7. Cyndee Summers, John Leslie
Scene 8. Robin Cannes, Craig Roberts
Scene 9. Honey Wilder, Kevin James
Scene 10. Ginger Lynn, Kevin James
Scene 11. Karen Summer, John Leslie
Scene 12. Ginger Lynn, Jamie Gillis
[url]...982624[/url]
[url]...718165[/url]
[url=...2075454]TABOO[/url] [url=...2075858]TABOO 2[/url][url=...2076299]TABOO 3[/url]
Трекер:  [ 16-Окт-2015 14:30 ]

Размер .torrent файла 18 KB


Размер: 1.82 GB
Хэш (hash) релиза: b2a4388dbfedcc6c40be9e19ba8e25ba85961ab9
Подписка на обновления:

Еще никто не оставлял запись к записи скачать торрент Taboo 4 Табу 4 . Будь первым!

!Обратная связь
//main.js show_panel