Статистика раздачи
Размер:  1.68 GB   |    Зарегистрирован:  1 год 5 месяцев   |    .torrent скачан:  278 раз   |   

Пиры будут получены при скачивании

 

Скачать порно Taboo 3 / Табу 3 через торрент бесплатно :: UnionPron.org

 
 
Автор Сообщение

Sakura

avatar Sakura


Taboo 3 / Табу 3

Год производства: 1984 г.
Страна: USA
Жанр: classic, rеtro, feature, incest, mature
Продолжительность: 01:33:18
Язык: Русский

Режиссер: Kirdy Stevens
Студия: Standard Video

В ролях: Angel West, Colleen Brennan, Honey Wilder, Kay Parker, Kristara Barrington, Lisa Lake, Misty Dawn, Pamela Mann, Blake Palmer, Craig Roberts, Eric Edwards, Jay Serling, Jerry Butler, Kevin James, Mike Ranger, Ron Jeremy

Описание: Главная героиня, зрелая и красивая женщина, Барбара Скотт, мучительно пытается забыть свою запретную связь со старшим сыном Полом. Но её второй сын, Джим, начинает оказывать её будоражащие её знаки внимания. Барбара разрывается между греховным желанием и запретами, что доводит её до слез и отчаяния. А внимание Джима становится все сильнее и настойчивее… Что победит: красивое и нежное чувство или надуманные запреты?..

[url=...1595860]DVD9[/url]



Качество видео: DVDRip-AVC
Формат видео: MP4
Видео: x264, 704x536, 23,976 кадра/сек, 2386 Кбит/сек, 0.264
Аудио: AC-3, 48,0 КГц, 2 канала, 192 Кбит/сек
Полное имя : H:\Taboo 3 (1984).mp4
Формат : MPEG-4
Профиль формата : Base Media
Идентификатор кодека : isom
Размер файла : 1,68 Гбайт
Продолжительность : 1 ч. 33 м.
Общий поток : 2580 Кбит/сек
Дата кодирования : UTC 2015-10-14 08:56:52
Дата пометки : UTC 2015-10-14 08:56:52

Видео
Идентификатор : 1
Формат : AVC
Формат/Информация : Advanced Video Codec
Профиль формата : High@L3.1
Параметр CABAC формата : Да
Параметр ReFrames формата : 8 кадров
Идентификатор кодека : avc1
Идентификатор кодека/Информация : Advanced Video Coding
Продолжительность : 1 ч. 33 м.
Битрейт : 2386 Кбит/сек
Максимальный битрейт : 5038 Кбит/сек
Ширина : 704 пикселя
Высота : 536 пикселей
Соотношение сторон : 4:3
Режим частоты кадров : Постоянный
Частота кадров : 23,976 кадра/сек
Цветовое пространство : YUV
Субдискретизация насыщенности : 4:2:0
Битовая глубина : 8 бит
Тип развёртки : Прогрессивная
Бит/(Пиксели*Кадры) : 0.264
Размер потока : 1,56 Гбайт (92%)
Библиотека кодирования : x264 core 148 r2597 e86f3a1
Настройки программы : cabac=1 / ref=8 / deblock=1:0:0 / analyse=0x3:0x113 / me=umh / subme=9 / psy=1 / psy_rd=1.00:0.00 / mixed_ref=1 / me_range=16 / chroma_me=1 / trellis=2 / 8x8dct=1 / cqm=0 / deadzone=21,11 / fast_pskip=1 / chroma_qp_offset=-2 / threads=4 / lookahead_threads=1 / sliced_threads=0 / nr=0 / decimate=0 / interlaced=0 / bluray_compat=0 / constrained_intra=0 / bframes=5 / b_pyramid=2 / b_adapt=2 / b_bias=0 / direct=1 / weightb=1 / open_gop=0 / weightp=2 / keyint=250 / keyint_min=23 / scenecut=40 / intra_refresh=0 / rc_lookahead=60 / rc=crf / mbtree=1 / crf=18.0 / qcomp=0.75 / qpmin=0 / qpmax=69 / qpstep=4 / ip_ratio=1.40 / aq=1:1.00
Дата кодирования : UTC 2015-10-14 08:56:52
Дата пометки : UTC 2015-10-14 08:57:27

Аудио
Идентификатор : 2
Формат : AC-3
Формат/Информация : Audio Coding 3
Расширение режима : CM (complete main)
Параметр Endianness формата : Big
Идентификатор кодека : ac-3
Продолжительность : 1 ч. 33 м.
Вид битрейта : Постоянный
Битрейт : 192 Кбит/сек
Каналы : 2 канала
Расположение каналов : Front: L R
Частота : 48,0 КГц
Битовая глубина : 16 бит
Метод сжатия : С потерями
Размер потока : 128 Мбайт (7%)
Дата кодирования : UTC 2015-10-14 08:57:21
Дата пометки : UTC 2015-10-14 08:57:27
http://www.iafd.com/title.rme/title=Taboo+3/year=1984/taboo-3.htm

Scene 1. Kay Parker, Mike Ranger
Scene 2. Kristara Barrington, Pamela Mann, Blake Palmer
Scene 3. Pamela Mann, Jerry Butler
Scene 4. Lisa Lake, Blake Palmer
Scene 5. Honey Wilder, Blake Palmer
Scene 6. Lisa Lake, Jerry Butler
Scene 7. Honey Wilder, Kay Parker, Blake Palmer
Scene 8. Colleen Brennan, Angel West, Kristara Barrington, Lisa Lake, Misty Dawn, Pamela Mann, Blake Palmer, Craig Roberts, David Sanders, Jerry Butler, Rick Knutson, Ron Jeremy
Scene 9. Honey Wilder, Jerry Butler
Scene 10. Honey Wilder, Kay Parker, Marc Wallice
Scene 11. Kay Parker, Jerry Butler
[url]...996433[/url]
[url]...1479415[/url]
[url=...2075454]TABOO ( часть 1-я)[/url][url=...2075858]TABOO 2[/url]
Трекер:  [ 15-Окт-2015 14:30 ]

Размер .torrent файла 17 KB


Размер: 1.68 GB
Хэш (hash) релиза: d74f7ab73fff9e62fdba49c389f70048f6b8de04
Подписка на обновления:

Еще никто не оставлял запись к записи скачать торрент Taboo 3 Табу 3 . Будь первым!

!Обратная связь
//main.js show_panel