Статистика раздачи
Размер:  1.79 GB   |    Зарегистрирован:  1 год 5 месяцев   |    .torrent скачан:  323 раза   |   

Пиры будут получены при скачивании

 

Скачать порно Taboo 2 / Табу 2 через торрент бесплатно :: UnionPron.org

 
 
Автор Сообщение

Sakura

avatar Sakura


Taboo 2 / Табу 2

Год производства: 1982 г.
Страна: USA
Жанр: classic, rеtro, feature, incest, mature
Продолжительность: 01:40:17
Язык: Русский

Режиссер: Kirdy Stevens
Студия: VCX

В ролях: Tammy, Cara Lott, Crystal Dawn (as Crystal Down), Dorothy Lemay (as Dorothy LeMay), Honey Wilder, Brooke Bennett (as Joan Victoria), Juliet Anderson (as Juliett Anderson), Kay Parker, Linda Shaw (as Lindsey Snow), Terry Galko (as Michelle), Rochelle Dean, Craig Roberts, David Cannon (as David Bates), Eric Edwards, Kevin James, Jeff Conrad (as Lee Cummings), Rod Diamond, Ron Jeremy, Edward Dean

Описание: Итак, «Табу-2». Режиссер Кёрди Стивенс решил повторить успех своей драмы в жанре фильмов категории X «Табу» (1980) и спустя два года снял продолжение, которое по кассовым сборам даже превзошло первую часть. Как и в первом фильме, ключевой темой стали «сладчайшие запреты»: инцест и супружеская измена.

Качество видео: DVDRip-AVC
Формат видео: MP4
Видео: x264, 688x528, 23,976 кадра/сек, 2359 Кбит/сек, 0.271
Аудио: AC-3, 48,0 КГц, 2 канала, 192 Кбит/сек

[url=...1593846]DVD9[/url]

http://www.iafd.com/title.rme/title=Taboo+2/year=1982/taboo-2.htm
AVN Awards, 2003
Nominee: Best Classic Release
Полное имя : H:\Taboo 2 (1982).mp4
Формат : MPEG-4
Профиль формата : Base Media
Идентификатор кодека : isom
Размер файла : 1,79 Гбайт
Продолжительность : 1 ч. 40 м.
Общий поток : 2554 Кбит/сек
Дата кодирования : UTC 2015-10-11 23:02:34
Дата пометки : UTC 2015-10-11 23:02:34

Видео
Идентификатор : 1
Формат : AVC
Формат/Информация : Advanced Video Codec
Профиль формата : High@L3.1
Параметр CABAC формата : Да
Параметр ReFrames формата : 8 кадров
Идентификатор кодека : avc1
Идентификатор кодека/Информация : Advanced Video Coding
Продолжительность : 1 ч. 40 м.
Битрейт : 2359 Кбит/сек
Максимальный битрейт : 6924 Кбит/сек
Ширина : 688 пикселей
Высота : 528 пикселей
Соотношение сторон : 4:3
Режим частоты кадров : Постоянный
Частота кадров : 23,976 кадра/сек
Цветовое пространство : YUV
Субдискретизация насыщенности : 4:2:0
Битовая глубина : 8 бит
Тип развёртки : Прогрессивная
Бит/(Пиксели*Кадры) : 0.271
Размер потока : 1,65 Гбайт (92%)
Библиотека кодирования : x264 core 148 r2597 e86f3a1
Настройки программы : cabac=1 / ref=8 / deblock=1:0:0 / analyse=0x3:0x113 / me=umh / subme=9 / psy=1 / psy_rd=0.90:0.00 / mixed_ref=1 / me_range=16 / chroma_me=1 / trellis=2 / 8x8dct=1 / cqm=0 / deadzone=21,11 / fast_pskip=1 / chroma_qp_offset=-2 / threads=4 / lookahead_threads=1 / sliced_threads=0 / nr=0 / decimate=0 / interlaced=0 / bluray_compat=0 / constrained_intra=0 / bframes=5 / b_pyramid=2 / b_adapt=2 / b_bias=0 / direct=1 / weightb=1 / open_gop=0 / weightp=2 / keyint=250 / keyint_min=23 / scenecut=40 / intra_refresh=0 / rc_lookahead=60 / rc=crf / mbtree=1 / crf=18.0 / qcomp=0.80 / qpmin=0 / qpmax=69 / qpstep=4 / ip_ratio=1.40 / aq=1:1.00
Дата кодирования : UTC 2015-10-11 23:02:34
Дата пометки : UTC 2015-10-11 23:03:06

Аудио
Идентификатор : 2
Формат : AC-3
Формат/Информация : Audio Coding 3
Расширение режима : CM (complete main)
Параметр Endianness формата : Big
Идентификатор кодека : ac-3
Продолжительность : 1 ч. 40 м.
Вид битрейта : Постоянный
Битрейт : 192 Кбит/сек
Каналы : 2 канала
Расположение каналов : Front: L R
Частота : 48,0 КГц
Битовая глубина : 16 бит
Метод сжатия : С потерями
Размер потока : 138 Мбайт (8%)
Дата кодирования : UTC 2015-10-11 23:03:00
Дата пометки : UTC 2015-10-11 23:03:06
Scene 1. Juliet Anderson, Kay Parker, Kevin James
Scene 2. Tammy, Kevin James
Scene 3. Honey Wilder, Eric Edwards
Scene 4. Tammy, Dorothy Lemay, Kevin James
Scene 5. Dorothy Lemay, Kevin James
Scene 6. Juliet Anderson, Rod Diamond
Scene 7. Dorothy Lemay, Kevin James
Scene 8. Honey Wilder, Kevin James
Scene 9. Tammy, Cara Lott, Crystal Dawn, Brooke Bennett, Juliet Anderson, Linda Shaw, Terry Galko, Craig Roberts, David Cannon, Kevin James, Jeff Conrad, Rod Diamond, Ron Jeremy
Scene 10. Dorothy Lemay, Kay Parker
Scene 11. Dorothy Lemay, Ron Jeremy
Scene 12. Dorothy Lemay, Eric Edwards
Scene 13. Honey Wilder, Eric Edwards
[url]...982273[/url]
[url]...1479085[/url]
[url]...1134346[/url]
[url]...71573[/url]
[url=...2075454]TABOO ( часть 1-я)[/url]
Трекер:  [ 14-Окт-2015 14:00 ]

Размер .torrent файла 18 KB


Размер: 1.79 GB
Хэш (hash) релиза: 05eb8445b0b5030c403b0f9e7e5dabd12e656e82
Подписка на обновления:

Торренты, похожие на Taboo 2 Табу 2 скачать торрент

Форум Название Автор Размер S L Добавлен
Гонзо-фильмы / Gonzo ·· Mothers Taboo Pregnancy 2 / Беременность табу матерей 2 (Angie Noir Films) [2014 г., Big Tits Cumshot Euro All Sex M.I.L.F. Cream Pies High Definition Taboo, DVDRip] Sakura 687079154655 MB 0 0 1425474020

17:00

4-Мар-15

Еще никто не оставлял запись к записи скачать торрент Taboo 2 Табу 2 . Будь первым!

!Обратная связь
//main.js show_panel