Статистика раздачи
Размер:  1.42 GB   |    Зарегистрирован:  1 год 10 месяцев   |    .torrent скачан:  465 раз   |   

Пиры будут получены при скачивании

 

Скачать порно Taboo / Taboo 1 / Табу через торрент бесплатно :: UnionPron.org

 
 
Автор Сообщение

Sakura

avatar Sakura


Taboo / Taboo 1 / Табу

Год производства: 1980 г.
Страна: USA
Жанр: classic, rеtro, feature, incest, mature
Продолжительность: 01:26:37
Язык: Русский

Режиссер: Kirdy Stevens
Студия: VCX

В ролях: Kay Parker, Holly McCall, Dorothy LeMay, Juliet Anderson, Connie Peterson, Tawny Pearl, Brooke West, Mike Ranger, Betsy Ward, Lee LeMay, Sarah Harris, Starr Wood, Valerie Darlyn, Don Fernando, Gary Eberhart, Jesse Adams, Jeff Scott, Jeremia Jones, Ken Scudder, Michael Morrison, R.J. Reynolds, Turk Lyon

Описание: Красавицу Барбару Скотт из-за взаимной сексуальной несовместимости бросает муж. В поисках выхода из ситуации Барбаре придется пересмотреть устаревшие догмы о взаимоотношениях полов. В этом ей помогут старые и новые друзья, уже открывшие для себя все прелести «запретных плодов любви»…

Качество видео: DVDRip-AVC
Формат видео: MP4
Видео: x264, 688x528, 23,976 кадра/сек, 2246 Кбит/сек, 0.258
Аудио: AC-3, 48,0 КГц, 2 канала, 96 Кбит/сек



[url=...1592125]DVD9[/url]
http://www.iafd.com/title.rme/title=Taboo+1/year=1980/taboo-1.htm
AVN Awards, 2003
Nominee: Best Classic Release

X-Rated: The Greatest Adult Movies of All Time, 2015
Winner: One of the Greatest Adult Films of All Time
Полное имя : H:\Taboo (1980).mp4
Формат : MPEG-4
Профиль формата : Base Media
Идентификатор кодека : isom
Размер файла : 1,42 Гбайт
Продолжительность : 1 ч. 26 м.
Общий поток : 2344 Кбит/сек
Дата кодирования : UTC 2015-10-12 10:32:04
Дата пометки : UTC 2015-10-12 10:32:04

Видео
Идентификатор : 1
Формат : AVC
Формат/Информация : Advanced Video Codec
Профиль формата : High@L3.1
Параметр CABAC формата : Да
Параметр ReFrames формата : 8 кадров
Идентификатор кодека : avc1
Идентификатор кодека/Информация : Advanced Video Coding
Продолжительность : 1 ч. 26 м.
Битрейт : 2246 Кбит/сек
Максимальный битрейт : 6004 Кбит/сек
Ширина : 688 пикселей
Высота : 528 пикселей
Соотношение сторон : 4:3
Режим частоты кадров : Постоянный
Частота кадров : 23,976 кадра/сек
Цветовое пространство : YUV
Субдискретизация насыщенности : 4:2:0
Битовая глубина : 8 бит
Тип развёртки : Прогрессивная
Бит/(Пиксели*Кадры) : 0.258
Размер потока : 1,36 Гбайт (96%)
Библиотека кодирования : x264 core 148 r2597 e86f3a1
Настройки программы : cabac=1 / ref=8 / deblock=1:0:0 / analyse=0x3:0x113 / me=umh / subme=9 / psy=1 / psy_rd=0.90:0.00 / mixed_ref=1 / me_range=16 / chroma_me=1 / trellis=2 / 8x8dct=1 / cqm=0 / deadzone=21,11 / fast_pskip=1 / chroma_qp_offset=-2 / threads=4 / lookahead_threads=1 / sliced_threads=0 / nr=0 / decimate=0 / interlaced=0 / bluray_compat=0 / constrained_intra=0 / bframes=5 / b_pyramid=2 / b_adapt=2 / b_bias=0 / direct=1 / weightb=1 / open_gop=0 / weightp=2 / keyint=250 / keyint_min=23 / scenecut=40 / intra_refresh=0 / rc_lookahead=60 / rc=crf / mbtree=1 / crf=18.0 / qcomp=0.80 / qpmin=0 / qpmax=69 / qpstep=4 / ip_ratio=1.40 / aq=1:1.00
Дата кодирования : UTC 2015-10-12 10:32:04
Дата пометки : UTC 2015-10-12 10:32:29

Аудио
Идентификатор : 2
Формат : AC-3
Формат/Информация : Audio Coding 3
Расширение режима : CM (complete main)
Параметр Endianness формата : Big
Идентификатор кодека : ac-3
Продолжительность : 1 ч. 26 м.
Вид битрейта : Постоянный
Битрейт : 96,0 Кбит/сек
Каналы : 2 канала
Расположение каналов : Front: L R
Частота : 48,0 КГц
Битовая глубина : 16 бит
Метод сжатия : С потерями
Размер потока : 59,5 Мбайт (4%)
Дата кодирования : UTC 2015-10-12 10:32:26
Дата пометки : UTC 2015-10-12 10:32:29
Scene 1. Kay Parker, Turk Lyon
Scene 2. Dorothy Lemay, Tawny Pearl, Mike Ranger
Scene 3. Juliet Anderson, Miko Yani, Don Fernando
Scene 4. Dorothy Lemay, Mike Ranger
Scene 5. Brooke West, Holly McCall, Lisa K. Loring, Sarah Harris, Starr Wood, T.J. Carson, Valerie Paulson, Gary Eberhart, Ken Scudder, Jeff Scott, Jeremiah Jones, Jesse Adams, Lee LeMay
Scene 6. Kay Parker, faceless guy
Scene 7. Kay Parker, Mike Ranger
Scene 8. Kay Parker, Mike Ranger
Scene 9. Miko Yani, Don Fernando
Scene 10. Juliet Anderson
Scene 11. Juliet Anderson, Miko Yani, Don Fernando
Scene 12. Kay Parker, Michael Morrison
[url]...1479430[/url]
[url]...1053961[/url]
[url]...71570[/url]
Трекер:  [ 13-Окт-2015 14:00 ]

Размер .torrent файла 14 KB


Размер: 1.42 GB
Хэш (hash) релиза: 8d6913d59d752ffff019f9ce494f76c5f9412f8d
Подписка на обновления:

sabir79

2 дня как не качает что-то случилось.
Нажимаешь на " скачать " пишет что подключение прервано

добавлено спустя 1 минута 4 секунды:

2 дня как не качает что-то случилось.
Нажимаешь на " скачать " пишет что подключение прервано

Хотите добавить комментарий к записи скачать торрент Taboo Taboo 1

!Обратная связь
//main.js show_panel