744 MB   |    :  1 9    |    .torrent :  48    |   

 

/ Chinese Kamasutra / Kamasutra cinese DVO :: UnionPron.org

 
 

Sakura

avatar Sakura


/ Chinese Kamasutra / Kamasutra cinese

:
: , ,
: 1993
: 01:24:36

: ( )
C:
: Ē / Joe D''Amato

: , , , , ,

: ? , , . . , . , , . , , , , . ,



: DVDRip
: AVI

: 608x376, 25.000 fps, XviD ~1092 kbps avg, 0.191 bit/pixel
: 48 kHz, MPEG Layer 3, 2 ch, 128 kbps avg
General
Complete name : C:\Video\Chinese Kamasutra DVDRip.avi
Format : AVI
Format/Info : Audio Video Interleave
File size : 744 MiB
Duration : 1h 24mn
Overall bit rate : 1 230 Kbps
Writing application : VirtualDubMod 1.5.10.3 | www.virtualdub-fr.org || (build 2550/release)
Writing library : VirtualDubMod build 2550/release

Video
ID : 0
Format : MPEG-4 Visual
Format profile : Advanced Simple@L5
Format settings, BVOP : 2
Format settings, QPel : No
Format settings, GMC : No warppoints
Format settings, Matrix : Default (MPEG)
Codec ID : XVID
Codec ID/Hint : XviD
Duration : 1h 24mn
Bit rate : 1 092 Kbps
Width : 608 pixels
Height : 376 pixels
Display aspect ratio : 16:10
Frame rate : 25.000 fps
Color space : YUV
Chroma subsampling : 4:2:0
Bit depth : 8 bits
Scan type : Progressive
Compression mode : Lossy
Bits/(Pixel*Frame) : 0.191
Stream size : 661 MiB (89%)
Writing library : XviD 1.2.1 (UTC 2008-12-04)

Audio
ID : 1
Format : MPEG Audio
Format version : Version 1
Format profile : Layer 3
Codec ID : 55
Codec ID/Hint : MP3
Duration : 1h 24mn
Bit rate mode : Constant
Bit rate : 128 Kbps
Channel(s) : 2 channels
Sampling rate : 48.0 KHz
Compression mode : Lossy
Stream size : 77.5 MiB (10%)
Alignment : Aligned on interleaves
Interleave, duration : 40 ms (1.00 video frame)
Interleave, preload duratio : 504 ms
Writing library : LAME3.99r
Encoding settings : -m s -V 4 -q 0 -lowpass 17 -b 128
http://multi-up.com/1064151
 ·  , , FAQ-
:  [ 28--2015 13:30 ]

.torrent 29 KB


: 744 MB
(hash) : 8724eb4f1dd87ad8d3e1165de996885b8b075108
:
··
...

Chinese Kamasutra . !

!
//main.js show_panel