Статистика раздачи
Размер:  1.98 GB   |    Зарегистрирован:  1 год 7 месяцев   |    .torrent скачан:  48 раз   |   

Пиры будут получены при скачивании

 

Скачать порно Pornochic Alexandra / Порношик Александра через торрент бесплатно :: UnionPron.org

 
 
Автор Сообщение

Sakura

avatar Sakura


Pornochic Alexandra / Порношик Александра

Год производства: 2003 г.
Страна: France
Жанр: Feature, Anal, Oral
Продолжительность: 01:54:40
Язык: Английский

Режиссер: Herve Bodilis
Студия: Marc Dorcel / Wicked

В ролях: Aleksandra, Dora (Passion), Nikolett, Andrea, Katalin, Olena, Krisztina. s, Melinda.

Описание: This film is wholly dedicated to women''s pleasure and climax.
On various pretexts, Alexandra, Natasha, Marilou, Sophie and the others, a bunch of ten gorgeous shapely perfect girls, expose the most secret parts of their body. Staring at you, they give themselves to you with the excess of an exuberant sexuality. A very original shooting puts you in the very center of the frame and you feel as if you were directly involved in the action, encouraged as you are by the complete impudicity of those young nymphomaniacs.

Доп. информация: http://www.iafd.com/title.rme/title=Alexandra/year=2005/alexandra.htm
В 6-й сцене вместо Caroline Cage (по данным IAFD) снималась Dora ( Passion). На 3-м скриншоте можно проверить.
Год выпуска фильма брал с сайта http://www.dorcelstore.com/fr/alexandra.html#
На постере Niki Belluci.

Scene Breakdowns:
Scene 1. Alexa May, guy
Scene 2. Niki Belluci, Karl Ben
Scene 3. Alisson, Gary Boldiszar
Scene 4. Caroline Cage, Christina Bella, Antonio Ross
Scene 5. Solange, Thomas Stone
Scene 6. Alexa May, Dora, guy
Scene 7. Alexa May, Claudia Ferrari, Sandy
Scene 8. Alexa May, Claudia Ferrari, Sandy, James Brossman, Thomas Stone

Исходник [url=...999050]DVD[/url]

Этот фильм в другом качестве:
1,37 - [url]...1025064[/url]
797 - [url]...241993[/url]
1,75 - [url]...241993[/url]

Качество видео: DVDRip-AVC
Формат видео: MP4
Видео: x264, 704:528, 25,000 кадров/сек, 2283 Кбит/сек, 0.246
Аудио: AC-3, 48,0 КГц, стерео, 192 Кбит/сек
Полное имя : H:\Alexandra - Pornochic (2005).mp4
Формат : MPEG-4
Профиль формата : Base Media
Идентификатор кодека : isom
Размер файла : 1,98 Гбайт
Продолжительность : 1 ч. 54 м.
Общий поток : 2478 Кбит/сек
Дата кодирования : UTC 2015-08-26 09:20:28
Дата пометки : UTC 2015-08-26 09:20:28
Программа кодирования : Yamb 2.1.0.0 [http://yamb.unite-video.com]

Видео
Идентификатор : 1
Формат : AVC
Формат/Информация : Advanced Video Codec
Профиль формата : High@L3.1
Параметр CABAC формата : Да
Параметр ReFrames формата : 8 кадров
Идентификатор кодека : avc1
Идентификатор кодека/Информация : Advanced Video Coding
Продолжительность : 1 ч. 54 м.
Битрейт : 2283 Кбит/сек
Максимальный битрейт : 8504 Кбит/сек
Ширина : 704 пикселя
Высота : 528 пикселей
Соотношение сторон : 4:3
Режим частоты кадров : Постоянный
Частота кадров : 25,000 кадров/сек
Цветовое пространство : YUV
Субдискретизация насыщенности : 4:2:0
Битовая глубина : 8 бит
Тип развёртки : Прогрессивная
Бит/(Пиксели*Кадры) : 0.246
Размер потока : 1,83 Гбайт (92%)
Библиотека кодирования : x264 core 130 r2273 b3065e6
Настройки программы : cabac=1 / ref=8 / deblock=1:0:0 / analyse=0x3:0x113 / me=umh / subme=9 / psy=1 / psy_rd=1.00:0.15 / mixed_ref=1 / me_range=16 / chroma_me=1 / trellis=1 / 8x8dct=1 / cqm=0 / deadzone=21,11 / fast_pskip=1 / chroma_qp_offset=-3 / threads=4 / lookahead_threads=1 / sliced_threads=0 / nr=0 / decimate=1 / interlaced=0 / bluray_compat=0 / constrained_intra=0 / bframes=4 / b_pyramid=2 / b_adapt=2 / b_bias=0 / direct=1 / weightb=1 / open_gop=0 / weightp=2 / keyint=250 / keyint_min=25 / scenecut=40 / intra_refresh=0 / rc_lookahead=60 / rc=crf / mbtree=1 / crf=17.0 / qcomp=0.70 / qpmin=0 / qpmax=69 / qpstep=4 / ip_ratio=1.40 / aq=1:1.00
Дата кодирования : UTC 2015-08-25 22:47:39
Дата пометки : UTC 2015-08-26 09:21:04
Цветовой диапазон : Limited
Коэффициенты матрицы : BT.601

Аудио
Идентификатор : 2
Формат : AC-3
Формат/Информация : Audio Coding 3
Расширение режима : CM (complete main)
Параметр Endianness формата : Big
Идентификатор кодека : ac-3
Продолжительность : 1 ч. 54 м.
Вид битрейта : Постоянный
Битрейт : 192 Кбит/сек
Каналы : 2 канала
Расположение каналов : Front: L R
Частота : 48,0 КГц
Битовая глубина : 16 бит
Метод сжатия : С потерями
Размер потока : 157 Мбайт (8%)
Дата кодирования : UTC 2015-08-26 09:20:58
Дата пометки : UTC 2015-08-26 09:21:04
Трекер:  [ 26-Авг-2015 15:00 ]

Размер .torrent файла 20 KB


Размер: 1.98 GB
Хэш (hash) релиза: 5587d6c7af66ee82b7778ae94fd1f56411e4c39f
Подписка на обновления:

Еще никто не оставлял запись к записи скачать торрент Pornochic Alexandra Порношик Александра . Будь первым!

!Обратная связь
//main.js show_panel