Статистика раздачи
Размер:  1.47 GB   |    Зарегистрирован:  2 года 4 месяца   |    .torrent скачан:  68 раз   |   

Пиры будут получены при скачивании

 

Скачать порно Vivir Follando / Пылкая испанка через торрент бесплатно :: UnionPron.org

 
 
Автор Сообщение

Sakura

avatar Sakura


Vivir Follando | Пылкая испанка

[url=...1333708] [/url][url=...643990] [/url]
Год производства: 2000 г.
Страна: Spain | Испания
Жанр: Feature
Продолжительность: 01:38:48
Язык: Чешский | Czech

Режиссер: Jose Maria Ponce
Студия: Film Corporation 2000

В ролях: Sara Bernat, [url=...1151805]Sophie Evans[/url],[url=...1148741]Dolly Golden[/url], Chipy Marlow, Aida, [url=...1713666]Krystal de Boor[/url], [url=...1333708]Nicole Taylor[/url], [url=...643990]Karma[/url], Toni Ribas, Max Cortés, Roberto Malone, Philippe Dean, Remigio Zampa, Robert Ribot, Holly One, Pascale White

Описание: Vivir follando es cine dentro del cine. Porno dentro del porno. Las aventuras de un equipo de rodaje, los secretos de su trabajo, el sexo de cada día. Descubra toda la verdad sobre una película X, a través de siete potentes escenas sexuales. Un homenaje del director a todos los que trabajan en la industria más caliente del mundo.

Una película que pone al descubierto las interioridades del mundo de la filmografía del género, homenajeando a todos los que trabajan en esta peculiar industria del cine porno español. En ella podremos ver, entre otros, a Max Cortes o Sophie Evans.
General
Format : MPEG-4
Format profile : Base Media / Version 2
Codec ID : mp42
File size : 1.47 GiB
Duration : 1h 38mn
Overall bit rate : 2 126 Kbps
Writing application : TMPGEnc Video Mastering Works 5 Version. 5.5.2.107
Video #2
ID : 2
Format : AVC
Format/Info : Advanced Video Codec
Format profile : High@L3.1
Format settings, CABAC : Yes
Format settings, ReFrames : 2 frames
Codec ID : avc1
Codec ID/Info : Advanced Video Coding
Duration : 1h 38mn
Bit rate mode : Variable
Bit rate : 1 998 Kbps
Width : 704 pixels
Height : 528 pixels
Display aspect ratio : 4/3
Frame rate mode : Constant
Frame rate : 25.000 fps
Resolution : 24 bits
Colorimetry : 4:2:0
Scan type : Progressive
Bits/(Pixel*Frame) : 0.215
Stream size : 1.38 GiB (94%)
Audio #1
ID : 1
Format : AAC
Format/Info : Advanced Audio Codec
Format version : Version 4
Format profile : LC
Format settings, SBR : No
Codec ID : 40
Duration : 1h 38mn
Bit rate mode : Variable
Bit rate : 125 Kbps
Maximum bit rate : 576 Kbps
Channel(s) : 2 channels
Channel positions : L R
Sampling rate : 48.0 KHz
Resolution : 16 bits
Stream size : 88.6 MiB (6%)
Качество видео: DVDRip
Формат видео: MP4
Видео: AVC, 704x528 (4:3), 25.000 fps, 1 998 Kbps (0.215 bit/pixel)
Аудио: AAC LC, 48.0 KHz, 2 ch, 125 Kbps, VBR
[url=...1584209]Vivir Follando (691 MB) [spa][/url]
Трекер:  [ 28-Июл-2015 23:30 ]

Размер .torrent файла 15 KB


Размер: 1.47 GB
Хэш (hash) релиза: 9a8326fd1c3837642921dbbba5a97484d861c7f4
Подписка на обновления:

Еще никто не оставлял запись к записи скачать торрент Vivir Follando Пылкая испанка . Будь первым!

!Обратная связь
//main.js show_panel