Статистика раздачи
Размер:  1.38 GB   |    Зарегистрирован:  1 год 11 месяцев   |    .torrent скачан:  54 раза   |   

Пиры будут получены при скачивании

 

Скачать порно Sex Emergency / Случайный секс / Amorous Liaisons через торрент бесплатно :: UnionPron.org

 
 
Автор Сообщение

Sakura

avatar Sakura


Sex Emergency | Случайный секс | Amorous Liaisons

Год производства: 1996 г.
Страна: Германия | Germany
Жанр: Feature
Продолжительность: 01:25:41
Язык: Немецкий | German

Режиссер: Kovi
Студия: Goldlight

В ролях:
Actresses: Monika Kiss, Bea Simon, Dina Pearl, Krisztina, [url=...1299184]Maria Bellucci aka Maria Szolontai (as Maria Bagoly)[/url], [url=...1076208]Anita Blond[/url]
Actors: Steve Hard, Frank Gun (aka Ferry Gizeh), Adam Jannin as Tibor Wessely, David a.o.

Описание: The genre movie “Sex Emergency” was originally released by Lux Video in 1996. German reissue as (Cat.No.UL02) by Goldlight the same year.

Scene Breakdowns:
Scene 1 - Dina Pearl, [url=...1076208]Anita Blond[/url], Monika Kiss [lez]
Scene 2 - Dina Pearl, [url=...1076208]Anita Blond[/url], Monika Kiss, Frank Gun
Scene 3 – blackhaired girl, Steve Hard (on the billiard table)
Scene 4 - [url=...1076208]Anita Blond[/url], Frank Gun
Scene 5a – Krisztina Bellanova, blackhaired girl, David
Scene 5b – Dina Pearl [DP], brunette, David, Adam Jannin
Scene 6 - [url=...1299184]Maria Bellucci[/url], David
General
Format : MPEG-4
Format profile : Base Media / Version 2
Codec ID : mp42
File size : 1.38 GiB
Duration : 1h 25mn
Overall bit rate : 2 309 Kbps
Encoded date : UTC 2015-07-01 11:11:47
Tagged date : UTC 2015-07-01 12:03:36
Video #1
ID : 1
Format : AVC
Format/Info : Advanced Video Codec
Format profile : Main@L3.1
Format settings, CABAC : Yes
Format settings, ReFrames : 2 frames
Codec ID : avc1
Codec ID/Info : Advanced Video Coding
Duration : 1h 25mn
Bit rate mode : Variable
Bit rate : 1 993 Kbps
Maximum bit rate : 4 276 Kbps
Width : 768 pixels
Height : 576 pixels
Display aspect ratio : 4/3
Frame rate mode : Constant
Frame rate : 25.000 fps
Resolution : 24 bits
Colorimetry : 4:2:0
Scan type : Progressive
Bits/(Pixel*Frame) : 0.180
Stream size : 1.19 GiB (86%)
Encoded date : UTC 2015-07-01 11:11:47
Tagged date : UTC 2015-07-01 12:03:36
Audio #2
ID : 2
Format : AAC
Format/Info : Advanced Audio Codec
Format version : Version 4
Format profile : LC
Format settings, SBR : No
Codec ID : 40
Duration : 1h 25mn
Bit rate mode : Variable
Bit rate : 312 Kbps
Maximum bit rate : 337 Kbps
Channel(s) : 2 channels
Channel positions : L R
Sampling rate : 48.0 KHz
Resolution : 16 bits
Stream size : 191 MiB (14%)
Encoded date : UTC 2015-07-01 11:11:47
Tagged date : UTC 2015-07-01 12:03:36
Качество видео: VHSRip
Формат видео: MP4
Видео: AVC, 768x576 (4:3), 25.000 fps, 1 993 Kbps (0.180 bit/pixel)
Аудио: AAC LC, 48.0 KHz, 2 ch, 312 Kbps, VBR
Трекер:  [ 19-Июл-2015 18:30 ]

Размер .torrent файла 14 KB


Размер: 1.38 GB
Хэш (hash) релиза: 69c39e9128fdf307ee71484e038d3baf1df551bb
Подписка на обновления:

Еще никто не оставлял запись к записи скачать торрент Sex Emergency Случайный секс . Будь первым!

!Обратная связь
//main.js show_panel