Статистика раздачи
Размер:  1.44 GB   |    Зарегистрирован:  1 год 6 месяцев   |    .torrent скачан:  67 раз   |   

Пиры будут получены при скачивании

 

Скачать порно Dangerous Woman / Harcelement Au Feminin / Опасная Женщина через торрент бесплатно :: UnionPron.org

 
 
Автор Сообщение

Sakura

avatar Sakura


Dangerous Woman | Harcelement Au Feminin | Опасная Женщина
[url=...1287695] [/url]
Год производства: 1999 г.
Страна: Франция | France
Жанр: Feature
Продолжительность: 01:36:36
Язык: Французский | French

Режиссер: Alain Payet
Студия: Marc Dorcel / Wicked Pictures

В ролях:
Actresses
Angel Paris [Anal Facial]
Angela Tiger
[url=...1687536]Coralie[/url] [Facial]
[url=...1239051]Elena Nikulina (as Ellen)[/url]
Illona [Anal]
[url=...1287695]Laura Angel[/url] [Anal Facial]
Lory''l
[url=...1793545]Melissa Ickx (as Melissa)[/url] [Anal]

Actors
Bob Dinero
Ken Furio
Kevin Long
Philippe Demanoir
Roberto Malone
Sebastian Barrio
Steve Holmes
NonSex Performers
Alban Ceray
Johnny T.

Описание: A la terrasse d’un café, le regard de Steve est attiré par une superbe femme Laura, qui ne cesse de prendre les attitudes les plus provocantes en le fixant dans les yeux.
Troublé, et malgré l’attirance sexuelle qu’il éprouve pour sa femme, il sent monter en lui un désir irrépressible pour cette magnifique créature. Lorsque cette dernière
fait irruption dans sa voiture et, après avoir attisé son désir, elle l’entraîne au bois où, sous ses yeux, elle se fait prendre par cinq inconnus à qui elle offre ce qu’elle
lui refuse. Plus tard, alors qu’il croit enfin la posséder, c’est avec une prostituée qu’elle l’oblige à faire l’amour devant elle. Incapable de résister à Laura et sur
son ordre, Steve doit encore sodomiser sa secrétaire en plein bureau tandis qu’elle se régale de leurs ébats par le biais du téléphone. Une nuit enfin, Laura consent à se
donner à lui s’il accepte de se soumettre à des conditions particulièrement perverses...

Scene Breakdowns:
Scene 1. [url=...1687536]Coralie[/url], Steve Holmes
Scene 2. [url=...1287695]Laura Angel[/url], 3 guys, Kevin Long
Scene 3. Illona, [url=...1287695]Laura Angel[/url], Steve Holmes
Scene 4. Angel Paris, Steve Holmes
Scene 5. Angela Tiger, [url=...1239051]Elena Nikulina[/url], [url=...1793545]Melissa Ickx[/url], guy, Roberto Malone, Sebastian Barrio
Scene 6. [url=...1287695]Laura Angel[/url], Lory''l, Steve Holmes
Scene 7. [url=...1287695]Laura Angel[/url], Steve Holmes
General
Format : AVI
Format/Info : Audio Video Interleave
File size : 1.44 GiB
Duration : 1h 36mn
Overall bit rate : 2 134 Kbps
Writing library : VirtualDub build 35491/release
Video
Format : MPEG-4 Visual
Format profile : Streaming Video@L1
Format settings, BVOP : Yes
Format settings, QPel : No
Format settings, GMC : No warppoints
Format settings, Matrix : Default (H.263)
Muxing mode : Packed bitstream
Codec ID : XVID
Codec ID/Hint : XviD
Duration : 1h 36mn
Bit rate : 1 994 Kbps
Width : 640 pixels
Height : 480 pixels
Display aspect ratio : 4/3
Frame rate : 29.970 fps
Resolution : 24 bits
Colorimetry : 4:2:0
Scan type : Progressive
Bits/(Pixel*Frame) : 0.217
Stream size : 1.35 GiB (93%)
Writing library : XviD 73
Audio
Format : MPEG Audio
Format version : Version 1
Format profile : Layer 3
Codec ID : 55
Codec ID/Hint : MP3
Duration : 1h 36mn
Bit rate mode : Constant
Bit rate : 128 Kbps
Channel(s) : 2 channels
Sampling rate : 48.0 KHz
Resolution : 16 bits
Stream size : 88.5 MiB (6%)
Alignment : Split accross interleaves
Interleave, duration : 33 ms (1.00 video frame)
Interleave, preload duration : 500 ms
Качество видео: DVDRip
Формат видео: AVI
Видео: MPEG4, XviD, 640x480 (4:3), 29.970 fps, 1 994 Kbps (0.217 bit/pixel)
Аудио: MP3, 48.0 KHz, 2 ch, 128 Kbps, CBR
<html>
<head><title>502 Bad Gateway</title></head>
<body bgcolor="white">
<center><h1>502 Bad Gateway</h1></center>
<hr><center>nginx/1.7.1</center>
</body>
</html>
[url=...123134]Dangerous Woman (1.07 GB)[/url]
[url=...356094]Dangerous Woman в составе DVD5[/url]
Трекер:  [ 19-Июл-2015 18:30 ]

Размер .torrent файла 15 KB


Размер: 1.44 GB
Хэш (hash) релиза: 970d91b1a0f358cc92690ea53a2195c383e78693
Подписка на обновления:

Торренты, похожие на Dangerous Woman Harcelement Au Feminin скачать торрент

Форум Название Автор Размер S L Добавлен
Фильмы с сюжетом / Feature & Vignettes ·· Dangerous Woman / Harcelement Au Feminin / Опасная женщина (Alain Payet, Wicked Pictures) [1999 г., All Sex, Anal, DVDRip] Angela Tiger, Coralie, Elena Nikulina, Laura Angel, Melissa Ickx Sakura 933388194890 MB 0 0 1417098628

18:30

27-Ноя-14

Еще никто не оставлял запись к записи скачать торрент Dangerous Woman Harcelement Au Feminin . Будь первым!

!Обратная связь
//main.js show_panel