Статистика раздачи
Размер:  1.36 GB   |    Зарегистрирован:  1 год 11 месяцев   |    .torrent скачан:  60 раз   |   

Пиры будут получены при скачивании

 

Скачать порно Tania et les filles en noir / Pretty in Black / Per il tuo piacere / Таня и девушки в черном через торрент бесплатно :: UnionPron.org

 
 
Автор Сообщение

Sakura

avatar Sakura


Tania et les filles en noir | Pretty in Black | Per il tuo piacere | Таня и девушки в черном

[url=...1333708] [/url]
Год производства: 2000 г.
Страна: Франция | France
Жанр: Feature
Продолжительность: 01:46:20
Язык: Итальянский | Italian

Режиссер: Jurgen Woolf
Студия: Helen Duval | Marc Dorcel

В ролях:
Actresses
Angelik (as Angelique) [Anal]
[url=...1148741]Dolly Golden[/url] [Anal Facial]
[url=...1513161Jessica May (as Jessica Mai) [/url][Anal Facial DP Bald A2M]
Kelly [LezOnly]
Angelica (as Kristyne Lovely) [Anal Facial A2M]
[url=...1713666]Krystal De Boor[/url] [Anal Facial DP]
[url=...1590732]Laura Guerlain (as Laura Guerlin)[/url] [Anal Facial DP]
[url=...1333708]Nicole Taylor[/url] [Anal Facial A2M]
[url=...1816965]Rumika Powers[/url] [Anal Facial DP]
NonSex Performers
[url=...1442612]Helen Duval[/url]
Unknown Female 214275

Actors
Bruno SX (as Bruno Aissix)
Pascal St. James
Philippe Dean
Reda
Robert Rosenberg
Titof
Tristan Segal (as Tristan)
NonSex Performers
Unknown Male 214275-A
Unknown Male 214275-B
Unknown Male 214275-C
Unknown Male 214275-D
William Le Bris (as William)

Описание: Rudoyée et constamment humiliée par un mari égoïste et violent, Tania s’est confiée à sa grande amie Marina, une blonde pulpeuse aux longs cheveux, perpétuellement habillée de noir.
Celle-ci l''invite alors à se joindre à son groupe, uniquement composé de jeunes femmes éprouvées par l''agressivité ou par la simple indifférence de leurs maris. Signe de ralliement, toutes doivent arborer des toilettes noires hyper - sexy.
Ainsi parées et encouragées, elles se vengent superbement de leurs déboires conjugaux en se livrant sans retenue aux jeux sexuels les plus hardis avec des hommes et des femmes de rencontre qui leur procurent ce plaisir qui leur est refusé par ailleurs..
Bientôt séduite, Tania ne tarde pas à faire de nouvelles adeptes…

Scene Breakdowns:
Scene 1. [url=...1816965]Rumika Powers[/url], Bruno SX
Scene 2. [url=...1713666]Krystal De Boor[/url], Reda, Robert Rosenberg
Scene 3. [url=...1513161]Jessica May[/url], [url=...1333708]Nicole Taylor[/url], Philippe Dean
Scene 4. [url=...1816965]Rumika Powers[/url], Robert Rosenberg, Tristan Segal
Scene 5. Angelica, [url=...1333708]Nicole Taylor[/url], Pascal St. James
Scene 6. [url=...1148741]Dolly Golden[/url], [url=...1713666]Krystal De Boor[/url], Reda, Titof
Scene 7. Angelik, [url=...1513161]Jessica May[/url], [url=...1590732]Laura Guerlain[/url], Robert Rosenberg, Titof
Scene 8. Kelly, [url=...1816965]Rumika Powers[/url]
General
Format : AVI
Format/Info : Audio Video Interleave
File size : 1.36 GiB
Duration : 1h 46mn
Overall bit rate : 1 836 Kbps
Video
Format : MPEG-4 Visual
Format settings, BVOP : Yes
Format settings, QPel : No
Format settings, GMC : No warppoints
Format settings, Matrix : Default (H.263)
Muxing mode : Packed bitstream
Codec ID : DX50
Codec ID/Hint : DivX 5
Duration : 1h 46mn
Bit rate : 1 698 Kbps
Width : 640 pixels
Height : 480 pixels
Display aspect ratio : 4/3
Frame rate : 25.000 fps
Resolution : 24 bits
Colorimetry : 4:2:0
Scan type : Progressive
Bits/(Pixel*Frame) : 0.221
Stream size : 1.26 GiB (93%)
Title : Video
Writing library : DivX 5.2.1 Alpha (UTC 2004-09-08)
Audio
Format : MPEG Audio
Format version : Version 1
Format profile : Layer 3
Codec ID : 55
Codec ID/Hint : MP3
Duration : 1h 46mn
Bit rate mode : Constant
Bit rate : 128 Kbps
Channel(s) : 2 channels
Sampling rate : 44.1 KHz
Resolution : 16 bits
Stream size : 97.3 MiB (7%)
Alignment : Split accross interleaves
Interleave, duration : 40 ms (1.00 video frame)
Interleave, preload duration : 500 ms
Title : Audio
Качество видео: DVDRip
Формат видео: AVI
Видео: MPEG4, DivX 5, 640x480 (4:3), 25.000 fps, 1 698 Kbps (0.221 bit/pixel)
Аудио: MP3, 44.1 KHz, 2 ch, 128 Kbps, CBR
[url=...300494]Tania et les filles en noir [fr] (685 MB)[/url]
Трекер:  [ 09-Июл-2015 18:30 ]

Размер .torrent файла 14 KB


Размер: 1.36 GB
Хэш (hash) релиза: e7b3973ac665dc5c660690f39d649e3e3963ae49
Подписка на обновления:

Еще никто не оставлял запись к записи скачать торрент Tania et les filles en noir Pretty in Black . Будь первым!

!Обратная связь
//main.js show_panel