Статистика раздачи
Размер:  360 MB   |    Зарегистрирован:  2 года 4 месяца   |    .torrent скачан:  54 раза   |   

Пиры будут получены при скачивании

 

Скачать порно Futari Ecchi OVA-2 / Хроники молодожёнов OVA-2 через торрент бесплатно :: UnionPron.org

 
 
Автор Сообщение

Sakura

avatar Sakura


Futari Ecchi OVA-2 / ふたりエッチ / Хроники молодожёнов OVA-2

Год производства: 2014 г.
Жанр: Comedy, daily life, erotica
Серии: ep. 1-3
Продолжительность: 26:30~27мин.
Цензура: Отсутствует

Язык: Японский
Озвучка: Оригинальная
Режиссер: Амино Тэцуро
Автор оригинала: Кацу Аки
Студия: Ashi Productions / 葦プロダクション

Описание: Макото Онода и Юра Кавада решили пожениться. Они молоды, хоть и не юны, благополучны, хоть и не богаты, и любят друг друга. Вот только, гм... они оба девственники! Что ж, от порога супружеской спальни отступать некуда, стало быть, бороться с этим непростым обстоятельством Макото и Юре придется сообща...

Качество видео: WEB-DL
Разрешение видео: 480p
Формат видео: MP4
Видео: 864х480; AVC; 16:9; 23.976 fps; 590 Kbps
Аудио 1: Японский(оригинал); isom; 659 Kbps; стерео
General
Complete name : D:\T\Futari Ecchi (2014) OVA-2\Futari Ecchi 01 (2014) OVA-2.mp4
Format : MPEG-4
Format profile : Base Media
Codec ID : isom
File size : 125 MiB
Duration : 26mn 29s
Overall bit rate mode : Variable
Overall bit rate : 659 Kbps
Encoded date : UTC 1970-01-01 00:00:00
Tagged date : UTC 1970-01-01 00:00:00
Writing application : Lavf52.87.1

Video
ID : 1
Format : AVC
Format/Info : Advanced Video Codec
Format profile : High@L3.1
Format settings, CABAC : Yes
Format settings, ReFrames : 4 frames
Codec ID : avc1
Codec ID/Info : Advanced Video Coding
Duration : 26mn 29s
Bit rate : 590 Kbps
Width : 864 pixels
Height : 480 pixels
Display aspect ratio : 16:9
Frame rate mode : Constant
Frame rate : 23.976 fps
Color space : YUV
Chroma subsampling : 4:2:0
Bit depth : 8 bits
Scan type : Progressive
Bits/(Pixel*Frame) : 0.059
Stream size : 112 MiB (90%)
Writing library : x264 core 120 r2120+630_tMod-8bit 0cb4837
Encoding settings : cabac=1 / ref=3 / deblock=1:0:0 / analyse=0x3:0x133 / me=tesa / subme=10 / psy=1 / fade_compensate=0.00 / psy_rd=0.40:0.00 / mixed_ref=1 / me_range=24 / chroma_me=1 / trellis=2 / 8x8dct=1 / cqm=0 / deadzone=21,11 / fast_pskip=1 / chroma_qp_offset=-2 / threads=18 / sliced_threads=0 / nr=0 / decimate=1 / interlaced=0 / bluray_compat=0 / constrained_intra=0 / fgo=0 / bframes=5 / b_pyramid=2 / b_adapt=1 / b_bias=0 / direct=3 / weightb=1 / open_gop=0 / weightp=2 / keyint=250 / keyint_min=1 / scenecut=40 / intra_refresh=0 / rc_lookahead=60 / rc=crf / mbtree=1 / crf=21.0000 / qcomp=0.40 / qpmin=0 / qpmax=69 / qpstep=4 / ip_ratio=1.40 / aq=1:0.60
Encoded date : UTC 1970-01-01 00:00:00
Tagged date : UTC 1970-01-01 00:00:00

Audio
ID : 2
Format : AAC
Format/Info : Advanced Audio Codec
Format profile : HE-AAC / LC
Codec ID : 40
Duration : 26mn 29s
Bit rate mode : Variable
Bit rate : 64.3 Kbps
Channel(s) : 2 channels
Channel positions : Front: L R
Sampling rate : 48.0 KHz / 24.0 KHz
Compression mode : Lossy
Stream size : 12.2 MiB (10%)
Encoded date : UTC 1970-01-01 00:00:00
Tagged date : UTC 1970-01-01 00:00:00
General
Complete name : D:\T\Futari Ecchi (2014) OVA-2\Futari Ecchi 02 (2014) OVA-2.mp4
Format : MPEG-4
Format profile : Base Media
Codec ID : isom
File size : 131 MiB
Duration : 27mn 13s
Overall bit rate mode : Variable
Overall bit rate : 675 Kbps
Encoded date : UTC 1970-01-01 00:00:00
Tagged date : UTC 1970-01-01 00:00:00
Writing application : Lavf52.87.1

Video
ID : 1
Format : AVC
Format/Info : Advanced Video Codec
Format profile : High@L3.1
Format settings, CABAC : Yes
Format settings, ReFrames : 4 frames
Codec ID : avc1
Codec ID/Info : Advanced Video Coding
Duration : 27mn 13s
Bit rate : 607 Kbps
Width : 864 pixels
Height : 480 pixels
Display aspect ratio : 16:9
Frame rate mode : Constant
Frame rate : 23.976 fps
Color space : YUV
Chroma subsampling : 4:2:0
Bit depth : 8 bits
Scan type : Progressive
Bits/(Pixel*Frame) : 0.061
Stream size : 118 MiB (90%)
Writing library : x264 core 120 r2120+630_tMod-8bit 0cb4837
Encoding settings : cabac=1 / ref=3 / deblock=1:0:0 / analyse=0x3:0x133 / me=tesa / subme=10 / psy=1 / fade_compensate=0.00 / psy_rd=0.40:0.00 / mixed_ref=1 / me_range=24 / chroma_me=1 / trellis=2 / 8x8dct=1 / cqm=0 / deadzone=21,11 / fast_pskip=1 / chroma_qp_offset=-2 / threads=18 / sliced_threads=0 / nr=0 / decimate=1 / interlaced=0 / bluray_compat=0 / constrained_intra=0 / fgo=0 / bframes=5 / b_pyramid=2 / b_adapt=1 / b_bias=0 / direct=3 / weightb=1 / open_gop=0 / weightp=2 / keyint=250 / keyint_min=1 / scenecut=40 / intra_refresh=0 / rc_lookahead=60 / rc=crf / mbtree=1 / crf=21.0000 / qcomp=0.40 / qpmin=0 / qpmax=69 / qpstep=4 / ip_ratio=1.40 / aq=1:0.60
Encoded date : UTC 1970-01-01 00:00:00
Tagged date : UTC 1970-01-01 00:00:00

Audio
ID : 2
Format : AAC
Format/Info : Advanced Audio Codec
Format profile : HE-AAC / LC
Codec ID : 40
Duration : 27mn 13s
Bit rate mode : Variable
Bit rate : 63.8 Kbps
Channel(s) : 2 channels
Channel positions : Front: L R
Sampling rate : 48.0 KHz / 24.0 KHz
Compression mode : Lossy
Stream size : 12.4 MiB (9%)
Encoded date : UTC 1970-01-01 00:00:00
Tagged date : UTC 1970-01-01 00:00:00
General
Complete name : D:\T\Futari Ecchi (2014) OVA-2\Futari Ecchi 03 (2014) OVA-2.mp4
Format : MPEG-4
Format profile : Base Media
Codec ID : isom
File size : 104 MiB
Duration : 26mn 31s
Overall bit rate mode : Variable
Overall bit rate : 547 Kbps
Encoded date : UTC 1970-01-01 00:00:00
Tagged date : UTC 1970-01-01 00:00:00
Writing application : Lavf52.87.1

Video
ID : 1
Format : AVC
Format/Info : Advanced Video Codec
Format profile : High@L3.1
Format settings, CABAC : Yes
Format settings, ReFrames : 4 frames
Codec ID : avc1
Codec ID/Info : Advanced Video Coding
Duration : 26mn 31s
Bit rate : 480 Kbps
Width : 864 pixels
Height : 480 pixels
Display aspect ratio : 16:9
Frame rate mode : Constant
Frame rate : 23.976 fps
Color space : YUV
Chroma subsampling : 4:2:0
Bit depth : 8 bits
Scan type : Progressive
Bits/(Pixel*Frame) : 0.048
Stream size : 91.1 MiB (88%)
Writing library : x264 core 120 r2120+630_tMod-8bit 0cb4837
Encoding settings : cabac=1 / ref=3 / deblock=1:0:0 / analyse=0x3:0x133 / me=tesa / subme=10 / psy=1 / fade_compensate=0.00 / psy_rd=0.40:0.00 / mixed_ref=1 / me_range=24 / chroma_me=1 / trellis=2 / 8x8dct=1 / cqm=0 / deadzone=21,11 / fast_pskip=1 / chroma_qp_offset=-2 / threads=18 / sliced_threads=0 / nr=0 / decimate=1 / interlaced=0 / bluray_compat=0 / constrained_intra=0 / fgo=0 / bframes=5 / b_pyramid=2 / b_adapt=1 / b_bias=0 / direct=3 / weightb=1 / open_gop=0 / weightp=2 / keyint=250 / keyint_min=1 / scenecut=40 / intra_refresh=0 / rc_lookahead=60 / rc=crf / mbtree=1 / crf=21.0000 / qcomp=0.40 / qpmin=0 / qpmax=69 / qpstep=4 / ip_ratio=1.40 / aq=1:0.60
Encoded date : UTC 1970-01-01 00:00:00
Tagged date : UTC 1970-01-01 00:00:00

Audio
ID : 2
Format : AAC
Format/Info : Advanced Audio Codec
Format profile : HE-AAC / LC
Codec ID : 40
Duration : 26mn 31s
Bit rate mode : Variable
Bit rate : 63.0 Kbps
Channel(s) : 2 channels
Channel positions : Front: L R
Sampling rate : 48.0 KHz / 24.0 KHz
Compression mode : Lossy
Stream size : 11.9 MiB (12%)
Encoded date : UTC 1970-01-01 00:00:00
Tagged date : UTC 1970-01-01 00:00:00
Трекер:  [ 05-Июл-2015 23:00 ]

Размер .torrent файла 14 KB


Размер: 360 MB
Хэш (hash) релиза: 3f4094c1e41aa53652aa0f768b4ad43006f28dc2
Подписка на обновления:

Еще никто не оставлял запись к записи скачать торрент Futari Ecchi OVA-2 Хроники молодожёнов OVA-2 . Будь первым!

!Обратная связь
//main.js show_panel