Статистика раздачи
Размер:  389 MB   |    Зарегистрирован:  2 года 2 месяца   |    .torrent скачан:  72 раза   |   

Пиры будут получены при скачивании

 

Скачать порно Honoo no Haramase Doukyuusei / Пламенный студент через торрент бесплатно :: UnionPron.org

 
 
Автор Сообщение

Sakura

avatar Sakura


Honoo no Haramase Doukyuuse / i炎の孕ませ同級生 / Пламенный студентГод производства: 2008 г.
Жанр: Big Tits, Harem, Oral sex, Paizuri, Bukkake, Group, Glasses, Android, Waitresses, Tennis, School, Students, Straight
Серии: ep 1 of 2
Продолжительность: 32 минуты
Цензура: Отсутствует

Язык: Японский
Озвучка: Оригинальная
Режиссер: Raika Ken
Автор оригинала: Squeez
Студия: Milky Animation Label, T-Rex, MS Pictures

Описание: Kazuya is a high school student. He is forced to move to a school dormitory because his parents have gone abroad on business, and they sold their house before leaving Japan. But, his school has no boys'' dormitory, so he begins to live at a girls'' dormitory. One day, he secretly peeks into the school sick-room while girls are under regular physical checkup, and he is surprised at their erotic breasts. He makes a vow to get their bodies and breasts....

Доп. информация: WordArt | ANN | AniDB | HentaiMag | MAL

Качество видео: DVDRip
Разрешение видео: 480p
Формат видео: MP4
Видео: 852x480, H.264/AVC, 16:9, 29.970 fps, 1 536 Kbps, 8 bits
Аудио 1: AAC, 48.0 KHz, 128 Kbps, stereo
General
Complete name : D:\Anime\2015 Uncensored Hentai Leak\Honoo no Haramase Doukyuusei Vol.01 [unc.].mp4
Format : MPEG-4
Format profile : Base Media
Codec ID : isom
File size : 389 MiB
Duration : 32mn 2s
Overall bit rate mode : Variable
Overall bit rate : 1 699 Kbps
Writing application : Lavf54.36.100

Video
ID : 1
Format : AVC
Format/Info : Advanced Video Codec
Format profile : Main@L3.0
Format settings, CABAC : Yes
Format settings, ReFrames : 4 frames
Codec ID : avc1
Codec ID/Info : Advanced Video Coding
Duration : 32mn 0s
Bit rate : 1 536 Kbps
Width : 852 pixels
Height : 480 pixels
Display aspect ratio : 16:9
Original display aspect ratio : 16:9
Frame rate mode : Constant
Frame rate : 29.970 fps
Color space : YUV
Chroma subsampling : 4:2:0
Bit depth : 8 bits
Scan type : Progressive
Bits/(Pixel*Frame) : 0.125
Stream size : 341 MiB (88%)
Writing library : x264 core 128 r2216 198a7ea
Encoding settings : cabac=1 / ref=1 / deblock=1:0:0 / analyse=0x1:0x111 / me=hex / subme=5 / psy=1 / psy_rd=1.00:0.00 / mixed_ref=0 / me_range=16 / chroma_me=1 / trellis=1 / 8x8dct=0 / cqm=0 / deadzone=21,11 / fast_pskip=1 / chroma_qp_offset=0 / threads=2 / lookahead_threads=1 / sliced_threads=0 / nr=0 / decimate=1 / interlaced=0 / bluray_compat=0 / constrained_intra=0 / bframes=3 / b_pyramid=2 / b_adapt=1 / b_bias=0 / direct=1 / weightb=1 / open_gop=0 / weightp=2 / keyint=30 / keyint_min=16 / scenecut=40 / intra_refresh=0 / rc_lookahead=30 / rc=abr / mbtree=1 / bitrate=1536 / ratetol=1.0 / qcomp=0.60 / qpmin=0 / qpmax=69 / qpstep=4 / ip_ratio=1.40 / aq=1:1.00
Tagged date : UTC 2014-07-24 14:12:34

Audio
ID : 2
Format : AAC
Format/Info : Advanced Audio Codec
Format profile : LC
Codec ID : 40
Duration : 31mn 59s
Bit rate mode : Variable
Bit rate : 126 Kbps
Maximum bit rate : 128 Kbps
Channel(s) : 2 channels
Channel positions : Front: L R
Sampling rate : 48.0 KHz
Compression mode : Lossy
Stream size : 28.8 MiB (7%)
Tagged date : UTC 2014-07-24 14:12:34
[url=...1009526]Там[/url]: хуже качество; наличие цензуры, 2-ой серии
[url=...1667028]Там[/url]: лучшe качество; наличие цензуры, 2-ой серии
ПОЖАЛУЙСТА НЕ УХОДИТЕ С РАЗДАЧИпомогайте людям...З.Ы. Нет, других серий нет, данный релиз часть недавней (Май, 2015) утечки оригиналов...
[url=...2015225]Kanojo x Kanojo x Kanojo: Sanshimai to no DokiDoki Kyoudou Seikatsu - Volume 3[/url]
[url=...2017836]Resort Boin - Volume 3[/url]
[url=...2020917]Oshioki: Gakuen Reijou Kousei Keikaku - Volume 1[/url]
[url=...2021813]Sweet Home: H na Onee-san Volume 1[/url]
BUST TO BUST - Volume 1-2
Gakuen Saimin Reido - Volume 1-3
Трекер:  [ 29-Июн-2015 02:30 ]

Размер .torrent файла 15 KB


Размер: 389 MB
Хэш (hash) релиза: edc7ef1bccae1b2914aa9ffef90dac1c2f4be3ac
Подписка на обновления:

Еще никто не оставлял запись к записи скачать торрент Honoo no Haramase Doukyuusei Пламенный студент . Будь первым!

!Обратная связь
//main.js show_panel