Статистика раздачи
Размер:  304 MB   |    Зарегистрирован:  1 год 11 месяцев   |    .torrent скачан:  110 раз   |   

Пиры будут получены при скачивании

 

Скачать порно Sweet Home: H na Oneesan wa Suki Desu ka? / Милый дом: А вы любите извращенную старшую сестренку? через торрент бесплатно :: UnionPron.org

 
 
Автор Сообщение

Sakura

avatar Sakura


Sweet Home: H na Oneesan wa Suki Desu ka?
Sweet Home~Hなお姉さんは好きですか?~
Милый дом: А вы любите извращенную старшую сестренку?Год производства: 2011 г.
Жанр: Big Tits, Harem, Oral sex, Paizuri, Incest, Bukkake, Toys, Glasses, Straight
Серии: ep 1 of 3
Продолжительность: 20 минут (+реклама)
Цензура: Отсутствует

Язык: Японский
Озвучка: Оригинальная
Аниматор: Kogure Masahiro
Автор оригинала: Code Pink
Студия: MS Pictures, Lyrics, Celeb

Описание: Ryuichi is a university student. He used to live alone and enjoyed his school life. But one day, his apartment was destroyed by a fire.... He reluctantly comes back to his house. But his house has been changed to a boarding house for girls...! It seems there is no place for him to live. But they all allow him to stay there together! His new life begins like this....

Доп. информация: WordArt | ANN | AniDB | Getchu | HentaiMag | MAL

Качество видео: DVDRip
Разрешение видео: 480p
Формат видео: MP4
Видео: 640x480, H.264/AVC, 4:3, 29.970 fps, 1 536 Kbps, 8 bits
Аудио 1: AAC, 48.0 KHz, 128 Kbps, stereo
General
Complete name : D:\Anime\2015 Uncensored Hentai Leak\Sweet Home - H na Onee-san wa Suki Desuka Vol.01 [unc.].mp4
Format : MPEG-4
Format profile : Base Media
Codec ID : isom
File size : 304 MiB
Duration : 24mn 16s
Overall bit rate : 1 751 Kbps
Writing application : Lavf54.36.100

Video
ID : 1
Format : AVC
Format/Info : Advanced Video Codec
Format profile : Main@L3.0
Format settings, CABAC : Yes
Format settings, ReFrames : 4 frames
Codec ID : avc1
Codec ID/Info : Advanced Video Coding
Duration : 24mn 16s
Bit rate : 1 536 Kbps
Width : 640 pixels
Height : 480 pixels
Display aspect ratio : 4:3
Frame rate mode : Constant
Frame rate : 29.970 fps
Color space : YUV
Chroma subsampling : 4:2:0
Bit depth : 8 bits
Scan type : Progressive
Bits/(Pixel*Frame) : 0.167
Stream size : 267 MiB (88%)
Writing library : x264 core 128 r2216 198a7ea
Encoding settings : cabac=1 / ref=1 / deblock=1:0:0 / analyse=0x1:0x111 / me=hex / subme=5 / psy=1 / psy_rd=1.00:0.00 / mixed_ref=0 / me_range=16 / chroma_me=1 / trellis=1 / 8x8dct=0 / cqm=0 / deadzone=21,11 / fast_pskip=1 / chroma_qp_offset=0 / threads=2 / lookahead_threads=1 / sliced_threads=0 / nr=0 / decimate=1 / interlaced=0 / bluray_compat=0 / constrained_intra=0 / bframes=3 / b_pyramid=2 / b_adapt=1 / b_bias=0 / direct=1 / weightb=1 / open_gop=0 / weightp=2 / keyint=30 / keyint_min=16 / scenecut=40 / intra_refresh=0 / rc_lookahead=30 / rc=abr / mbtree=1 / bitrate=1536 / ratetol=1.0 / qcomp=0.60 / qpmin=0 / qpmax=69 / qpstep=4 / ip_ratio=1.40 / aq=1:1.00
Tagged date : UTC 2014-07-24 14:43:44

Audio
ID : 2
Format : AAC
Format/Info : Advanced Audio Codec
Format profile : LC
Codec ID : 40
Duration : 24mn 16s
Bit rate mode : Constant
Bit rate : 128 Kbps
Channel(s) : 2 channels
Channel positions : Front: L R
Sampling rate : 48.0 KHz
Compression mode : Lossy
Stream size : 22.2 MiB (7%)
Tagged date : UTC 2014-07-24 14:43:44
[url=...1484178]Там[/url]: лучше качество; наличие цензуры, последних 2-ух серий
[url=...1764730]Там[/url]: наличие цензуры, последних 2-ух серий, субтитров (2-ух английских, 2-ух русских), русской озвучки
ПОЖАЛУЙСТА НЕ УХОДИТЕ С РАЗДАЧИпомогайте людям...З.Ы. Нет, других серий нет, данный релиз часть недавней (Май, 2015) утечки оригиналов...
[url=...2015225]Kanojo x Kanojo x Kanojo: Sanshimai to no DokiDoki Kyoudou Seikatsu - Volume 3[/url]
[url=...2017836]Resort Boin - Volume 3[/url]
[url=...2020917]Oshioki: Gakuen Reijou Kousei Keikaku - Volume 1[/url]
Honoo no Haramase Doukyuusei Volume 1
BUST TO BUST - Volume 1-2
Gakuen Saimin Reido - Volume 1-3
Трекер:  [ 27-Июн-2015 06:00 ]

Размер .torrent файла 12 KB


Размер: 304 MB
Хэш (hash) релиза: d82edf6bb42e89cf3487422f90fc37ceb70cd04a
Подписка на обновления:

Еще никто не оставлял запись к записи скачать торрент Sweet Home: H na Oneesan wa Suki Desu ka? Милый дом: А вы любите извращенную старшую сестренку? . Будь первым!

!Обратная связь
//main.js show_panel