Статистика раздачи
Размер:  372 MB   |    Зарегистрирован:  2 года 4 месяца   |    .torrent скачан:  99 раз   |   

Пиры будут получены при скачивании

 

Скачать порно Oshioki: Gakuen Reijou Kousei Keikaku / Наказание: Школьная Программа для Учениц через торрент бесплатно :: UnionPron.org

 
 
Автор Сообщение

Sakura

avatar Sakura


Oshioki: Gakuen Reijou Kousei Keikaku
懲罰指導 ~学園令嬢更性計画~
Наказание: Школьная Программа для Учениц

Год производства: 2011 г.
Жанр: Big Tits, Yuri, Rape, Virgins, School, Students, Straight
Серии: ep 1 of 3
Продолжительность: 17 минут (+реклама)
Цензура: Отсутствует

Язык: Японский
Озвучка: Оригинальная
Режиссер: Tsuneo Tominaga
Автор оригинала: Tinker Bell
Студия: MS Pictures, Celeb

Описание: My name is Shimohei Joutarou. There is a reason that I''m here, at my new place of work, despite the fact that the school year hasn''t started.

On that first day, I almost immediately came across Mitsuki''s and Minami''s secret. I then heard about Mahiru, younger sister of Classics teacher Kuji Hinako, and the astonishing improvement of her grades. I then discover indications of Hinako''s backdoor maneuverings.

Now, it is up to me to rehabilitate these students who break the rules.

Доп. информация: WordArt | ANN | AniDB | Getchu | HentaiMag | MAL

Качество видео: DVDRip
Разрешение видео: 480p
Формат видео: MP4
Видео: 640x480, H.264/AVC, 4:3, 29.970 fps, 1 536 Kbps, 8 bits
Аудио 1: AAC, 48.0 KHz, 128 Kbps, stereo
General
Complete name : D:\Anime\2015 Uncensored Hentai Leak\Oshioki - Gakuen Reijou Kousei Keikaku Vol.01 [unc.].mp4
Format : MPEG-4
Format profile : Base Media
Codec ID : isom
File size : 372 MiB
Duration : 29mn 59s
Overall bit rate : 1 735 Kbps
Writing application : Lavf54.36.100

Video
ID : 1
Format : AVC
Format/Info : Advanced Video Codec
Format profile : Main@L3.0
Format settings, CABAC : Yes
Format settings, ReFrames : 4 frames
Codec ID : avc1
Codec ID/Info : Advanced Video Coding
Duration : 29mn 59s
Bit rate : 1 536 Kbps
Width : 640 pixels
Height : 480 pixels
Display aspect ratio : 4:3
Frame rate mode : Constant
Frame rate : 29.970 fps
Color space : YUV
Chroma subsampling : 4:2:0
Bit depth : 8 bits
Scan type : Progressive
Bits/(Pixel*Frame) : 0.167
Stream size : 326 MiB (88%)
Writing library : x264 core 128 r2216 198a7ea
Encoding settings : cabac=1 / ref=1 / deblock=1:0:0 / analyse=0x1:0x111 / me=hex / subme=5 / psy=1 / psy_rd=1.00:0.00 / mixed_ref=0 / me_range=16 / chroma_me=1 / trellis=1 / 8x8dct=0 / cqm=0 / deadzone=21,11 / fast_pskip=1 / chroma_qp_offset=0 / threads=2 / lookahead_threads=1 / sliced_threads=0 / nr=0 / decimate=1 / interlaced=0 / bluray_compat=0 / constrained_intra=0 / bframes=3 / b_pyramid=2 / b_adapt=1 / b_bias=0 / direct=1 / weightb=1 / open_gop=0 / weightp=2 / keyint=30 / keyint_min=16 / scenecut=40 / intra_refresh=0 / rc_lookahead=30 / rc=abr / mbtree=1 / bitrate=1536 / ratetol=1.0 / qcomp=0.60 / qpmin=0 / qpmax=69 / qpstep=4 / ip_ratio=1.40 / aq=1:1.00
Tagged date : UTC 2014-07-24 14:48:18

Audio
ID : 2
Format : AAC
Format/Info : Advanced Audio Codec
Format profile : LC
Codec ID : 40
Duration : 29mn 59s
Duration_LastFrame : -11ms
Bit rate mode : Constant
Bit rate : 128 Kbps
Channel(s) : 2 channels
Channel positions : Front: L R
Sampling rate : 48.0 KHz
Compression mode : Lossy
Stream size : 27.5 MiB (7%)
Tagged date : UTC 2014-07-24 14:48:18
[url=...1416914]Там[/url]: лучше качество; наличие цензуры, последних 2-ух серий
[url=...1799742]Там[/url]: наличие цензуры, последних 2-ух серий, субтитров (английских, русских), русской озвучки
ПОЖАЛУЙСТА НЕ УХОДИТЕ С РАЗДАЧИпомогайте людям...З.Ы. Нет, других серий нет, данный релиз часть недавней (Май, 2015) утечки оригиналов...
[url=...2015225]Kanojo x Kanojo x Kanojo: Sanshimai to no DokiDoki Kyoudou Seikatsu - Volume 3[/url]
[url=...2017836]Resort Boin - Volume 3[/url]
Sweet Home: H na Onee-san Volume 1
Honoo no Haramase Doukyuusei Volume 1
BUST TO BUST - Volume 1-2
Gakuen Saimin Reido - Volume 1-3
Трекер:  [ 27-Июн-2015 05:30 ]

Размер .torrent файла 15 KB


Размер: 372 MB
Хэш (hash) релиза: 6612e49a8924bf22c5e7c088f2d8ed9666f7aa0b
Подписка на обновления:

Еще никто не оставлял запись к записи скачать торрент Oshioki: Gakuen Reijou Kousei Keikaku Наказание: Школьная Программа для Учениц . Будь первым!

!Обратная связь
//main.js show_panel