Статистика раздачи
Размер:  382 MB   |    Зарегистрирован:  2 года 4 месяца   |    .torrent скачан:  137 раз   |   

Пиры будут получены при скачивании

 

Скачать порно Resort Boin / Большегрудый Курорт через торрент бесплатно :: UnionPron.org

 
 
Автор Сообщение

Sakura

avatar Sakura


Resort Boin / リゾートBOIN / Большегрудый Курорт
Год производства: 2009 г.
Жанр: Big Tits, Harem, Oral sex, Paizuri, Anal Sex, Incest, Bukkake, Group sex, BDSM, Beach, Waitress, Swimsuit, Bikini, Virgins, Straight, Yuri
Серии: ep 3 of 3
Продолжительность: 30 минут
Цензура: Отсутствует

Язык: Японский
Озвучка: Оригинальная
Режиссер: Kōsuke Murayama
Автор оригинала: Crossnet
Студия: Studio Eromatick, Milky Animation Label, MS Pictures

Описание: On spring break, Daisuke is excited for his vacation on a tropical island for some well deserved relaxation and girl watching. He finds himself quite inexplicably popular with the ladies as well. Nao and Mitsugu follow him there as well competing, as usual, for his attentions. Meanwhile he meets his cousin Maya again after a long time as well as the wild Kanae and her friend Mika.

Доп. информация: WordArt | ANN | AniDB | Getchu | HentaiMag | MAL
Качество видео: DVDRip
Разрешение видео: 480p
Формат видео: MP4
Видео: 860x480, H.264/AVC , 4:3, 29.970 fps, 1 536 Kbps, 8 bits
Аудио 1: AAC, 48.0 KHz, 128 Kbps, stereo
General
Complete name : D:\Anime\2015 Uncensored Hentai Leak\Resort Boin Vol.03 - Shameless Tale of Southern Island Chapter [unc.].mp4
Format : MPEG-4
Format profile : Base Media
Codec ID : isom
File size : 382 MiB
Duration : 30mn 40s
Overall bit rate : 1 742 Kbps
Writing application : Lavf54.36.100

Video
ID : 1
Format : AVC
Format/Info : Advanced Video Codec
Format profile : Main@L3.0
Format settings, CABAC : Yes
Format settings, ReFrames : 4 frames
Codec ID : avc1
Codec ID/Info : Advanced Video Coding
Duration : 30mn 40s
Bit rate : 1 536 Kbps
Width : 640 pixels
Height : 480 pixels
Display aspect ratio : 4:3
Frame rate mode : Constant
Frame rate : 29.970 fps
Color space : YUV
Chroma subsampling : 4:2:0
Bit depth : 8 bits
Scan type : Progressive
Bits/(Pixel*Frame) : 0.167
Stream size : 335 MiB (88%)
Writing library : x264 core 128 r2216 198a7ea
Encoding settings : cabac=1 / ref=1 / deblock=1:0:0 / analyse=0x1:0x111 / me=hex / subme=5 / psy=1 / psy_rd=1.00:0.00 / mixed_ref=0 / me_range=16 / chroma_me=1 / trellis=1 / 8x8dct=0 / cqm=0 / deadzone=21,11 / fast_pskip=1 / chroma_qp_offset=0 / threads=2 / lookahead_threads=1 / sliced_threads=0 / nr=0 / decimate=1 / interlaced=0 / bluray_compat=0 / constrained_intra=0 / bframes=3 / b_pyramid=2 / b_adapt=1 / b_bias=0 / direct=1 / weightb=1 / open_gop=0 / weightp=2 / keyint=30 / keyint_min=16 / scenecut=40 / intra_refresh=0 / rc_lookahead=30 / rc=abr / mbtree=1 / bitrate=1536 / ratetol=1.0 / qcomp=0.60 / qpmin=0 / qpmax=69 / qpstep=4 / ip_ratio=1.40 / aq=1:1.00
Tagged date : UTC 2014-07-24 15:40:34

Audio
ID : 2
Format : AAC
Format/Info : Advanced Audio Codec
Format profile : LC
Codec ID : 40
Duration : 30mn 40s
Bit rate mode : Constant
Bit rate : 128 Kbps
Channel(s) : 2 channels
Channel positions : Front: L R
Sampling rate : 48.0 KHz
Compression mode : Lossy
Stream size : 28.1 MiB (7%)
Tagged date : UTC 2014-07-24 15:40:34
[url=...1989430]Там[/url]: лучше качество; наличие цензуры, первых 2-ух эпизодов
[url=...1533469]Там[/url]: наличие цензуры, первых 2-ух эпизодов, русской озвучки, субтитров (польских, английских, русских), приквела (Boin Lecture)
[url=...1137825]Там[/url], [url=...1100037]Там[/url] и [url=...1117843]Там[/url]: лучше качество; наличие цензуры, первых 2-ух эпизодов, субтитров (английских, русских)
Трекер:  [ 18-Июн-2015 04:00 ]

Размер .torrent файла 15 KB


Размер: 382 MB
Хэш (hash) релиза: 30bf9d7a93504adab68c9e43bcf8bd1073c48b77
Подписка на обновления:

Еще никто не оставлял запись к записи скачать торрент Resort Boin Большегрудый Курорт . Будь первым!

!Обратная связь
//main.js show_panel