Статистика раздачи
Размер:  1.46 GB   |    Зарегистрирован:  1 год 9 месяцев   |    .torrent скачан:  169 раз   |   

Пиры будут получены при скачивании

 

Скачать порно Cashback / Возврат / Сдача / Вернуть наличкой DVO через торрент бесплатно :: UnionPron.org

 
 
Автор Сообщение

Sakura

avatar Sakura


Cashback / Возврат / Сдача / Вернуть наличкой

Год производства: 2006 г.
Страна: Великобритания
Жанр: эротика
Продолжительность: 01:42:03
Язык: Русский
Перевод: Профессиональный (двухголосый, закадровый) - Студия Инис

Режиссер: Шон Эллис / Sean Ellis

Студия: Left Turn Films, Lipsync Productions, Ugly Duckling Films

В ролях: Шон Биггерстаф (Ben Willis), Эмилия Фокс (Sharon Pintey), Стюарт Гудвин (Jenkins), Майкл Лэмбурн (Matt Stephens), Майкл Диксон (Barry Brickman), Мишель Райан (Suzy), Эрика Эллис(Canteen Lady), Джей Бауэн (Steve Jenkins), Шон Эванс (Sean Higgins), Кеннет Фахи (Art Class Life Model), Стэн Эллис (Art Class Teacher), Кэти Болл (Art Class Girl)

Описание: Переживая болезненное расставание с любимой, Бен впадает в бессонницу. В освободившиеся 8 часов он начинает работать в ночную смену местного супермаркета, где главной задачей обслуживающего персонала является «времяубийство». Неожиданно Бен обнаруживает в себе необычную способность останавливать время, что даёт толчок его художественному таланту.

Качество видео: BDRip
Формат видео: AVI
Видео: XviD, 720x304, 23.976 fps, 1652 kbps, 0.31 bit/pixel
Аудио: AC3, 48 kHz, 384 kbps, Dolby Digital, 3/2 (L,C,R,l,r) + LFE ch.
General
Complete name : Cashback (2006).avi
Format : AVI
Format/Info : Audio Video Interleave
File size : 1.46 GiB
Duration : 1h 42mn
Overall bit rate : 2 044 Kbps
Movie name : Возврат / Сдача / Вернуть наличкой / Cashback (2006)
Writing application : VirtualDubMod 1.5.10.3 | www.virtualdub-fr.org || (build 2550/release)
Copyright : AllFilms (rutracker.org)

Video
ID : 0
Format : MPEG-4 Visual
Format profile : Advanced Simple@L5
Format settings, BVOP : 1
Format settings, QPel : No
Format settings, GMC : No warppoints
Format settings, Matrix : Custom
Codec ID : XVID
Codec ID/Hint : XviD
Duration : 1h 42mn
Bit rate : 1 652 Kbps
Width : 720 pixels
Height : 304 pixels
Display aspect ratio : 2.35:1
Frame rate : 23.976 fps
Color space : YUV
Chroma subsampling : 4:2:0
Bit depth : 8 bits
Scan type : Progressive
Compression mode : Lossy
Bits/(Pixel*Frame) : 0.315
Stream size : 1.18 GiB (81%)
Writing library : XviD 65

Audio
ID : 1
Format : AC-3
Format/Info : Audio Coding 3
Mode extension : CM (complete main)
Format settings, Endianness : Big
Codec ID : 2000
Duration : 1h 41mn
Bit rate mode : Constant
Bit rate : 384 Kbps
Channel(s) : 6 channels
Channel positions : Front: L C R, Side: L R, LFE
Sampling rate : 48.0 KHz
Bit depth : 16 bits
Compression mode : Lossy
Stream size : 279 MiB (19%)
Alignment : Split accross interleaves
Interleave, duration : 42 ms (1.00 video frame)
Interleave, preload duratio : 500 ms
Трекер:  [ 14-Июн-2015 19:00 ]

Размер .torrent файла 15 KB


Размер: 1.46 GB
Хэш (hash) релиза: 131d399ea5b477cb2703f0801b0f8e27a317c51c
Подписка на обновления:

Еще никто не оставлял запись к записи скачать торрент Cashback Возврат . Будь первым!

!Обратная связь
//main.js show_panel