Статистика раздачи
Размер:  1.47 GB   |    Зарегистрирован:  2 года 2 месяца   |    .torrent скачан:  233 раза   |   

Пиры будут получены при скачивании

 

Скачать порно Elles / Откровения MVO через торрент бесплатно :: UnionPron.org

 
 
Автор Сообщение

Sakura

avatar Sakura


Elles / Откровения

Год производства: 2011 г.
Страна: Франция, Польша, Германия
Жанр: Эротика
Продолжительность: 01:35:19
Перевод: Профессиональный (многоголосый закадровый)

Режиссер: Малгожата Шумовска / Malgorzata Szumowska

В ролях: Жюльет Бинош, Анаис Демустье, Джоэнна Кулиг, Луи-До де Ланкесэ, Кристина Янда, Анджей Хыра, Али Мархьяр, Жан-Мари Бинош, Франсуа Сивиль, Пабло Бюне

Описание: Журналистка Анна, занимающаяся расследованиями для журнала Elle, увлечена новой темой. Она знакомится с группой юных студенток, которые зарабатывают на свое обучение проституцией. Частые встречи уравновешенной дамы и любвеобильных девушек вызывают у Анны чувственный ренессанс и заставляют переосмыслить свои убеждения о деньгах, семье и сексе...

Качество видео: BDRip
Формат видео: AVI
Видео: DivX, 720х304, 2003 Kbps, 25.000 fps
Аудио: AC3, 192 Kbps, 48 KHz, 2 ch.
General
Complete name : Elles.avi
Format : AVI
Format/Info : Audio Video Interleave
File size : 1.47 GiB
Duration : 1h 35mn
Overall bit rate : 2 205 Kbps
Writing application : VirtualDubMod 1.5.10.3 | www.virtualdub-fr.org || (build 2550/release)
Writing library : VirtualDubMod build 2550/release

Video
ID : 0
Format : MPEG-4 Visual
Format profile : Advanced Simple@L5
Format settings, BVOP : 1
Format settings, QPel : No
Format settings, GMC : No warppoints
Format settings, Matrix : Default (MPEG)
Codec ID : DX50
Codec ID/Hint : DivX 5
Duration : 1h 35mn
Bit rate : 2 003 Kbps
Width : 720 pixels
Height : 304 pixels
Display aspect ratio : 2.35:1
Frame rate : 25.000 fps
Color space : YUV
Chroma subsampling : 4:2:0
Bit depth : 8 bits
Scan type : Progressive
Compression mode : Lossy
Bits/(Pixel*Frame) : 0.366
Stream size : 1.33 GiB (91%)
Writing library : XviD 1.2.1 (UTC 2008-12-04)

Audio
ID : 1
Format : AC-3
Format/Info : Audio Coding 3
Mode extension : CM (complete main)
Format settings, Endianness : Big
Codec ID : 2000
Duration : 1h 35mn
Bit rate mode : Constant
Bit rate : 192 Kbps
Channel(s) : 2 channels
Channel positions : Front: L R
Sampling rate : 48.0 KHz
Bit depth : 16 bits
Compression mode : Lossy
Stream size : 131 MiB (9%)
Alignment : Split accross interleaves
Interleave, duration : 40 ms (1.00 video frame)
Interleave, preload duratio : 500 ms
Трекер:  [ 13-Июн-2015 23:00 ]

Размер .torrent файла 15 KB


Размер: 1.47 GB
Хэш (hash) релиза: 99bb9a79a0a510bc41a7b8e256d15ba5b640440f
Подписка на обновления:

Еще никто не оставлял запись к записи скачать торрент Elles Откровения . Будь первым!

!Обратная связь
//main.js show_panel