Статистика раздачи
Размер:  315 MB   |    Зарегистрирован:  2 года 3 месяца   |    .torrent скачан:  109 раз   |   

Пиры будут получены при скачивании

 

Скачать порно Kanojo x Kanojo x Kanojo: Sanshimai to no DokiDoki Kyoudou Seikatsu / Три подружки: Бурная жизнь с тремя сестричками через торрент бесплатно :: UnionPron.org

 
 
Автор Сообщение

Sakura

avatar Sakura


Kanojo x Kanojo x Kanojo: Sanshimai to no DokiDoki Kyoudou Seikatsu / 彼女×彼女×彼女~三姉妹とのドキドキ共同生活~ / Три подружки: Бурная жизнь с тремя сестричками

Год производства: 2009 г.
Жанр: Big Tits, Harem, Oral sex, Paizuri, Incest
Серии: ep 3 of 3
Продолжительность: 25 минут
Цензура: Отсутствует

Язык: Японский
Озвучка: Оригинальная
Режиссер: Kōsuke Murayama
Автор оригинала: Crossnet
Студия: Studio Eromatick

Описание: Haruomi lives peacefully on a small island. But one day, a volcano erupts, so he gets out of the island and temporarily stays at his relative's house. He meets Natsumi, Akina, and Mafuyu there. They are sisters and all pretty. His peaceful life suddenly turns into an exciting erotic life....

Доп. информация: Episode 3: Meeting at the Festival, Bath and Harem Paradise

Качество видео: DVDRip
Разрешение видео: 480p
Формат видео: MP4
Видео: 860x480, H.264/AVC , 16:9, 29.970 fps, 1 536 Kbps, 8 bits
Аудио 1: AAC, 48.0 KHz, 128 Kbps, stereo
General
Complete name : D:\Anime\2015 Uncensored Hentai Leak\Kanojo x Kanojo x Kanojo - Sanshimai to no DokiDoki Kyoudou Seikatsu Vol.03 [unc.].mp4
Format : MPEG-4
Format profile : Base Media
Codec ID : isom
File size : 315 MiB
Duration : 25mn 22s
Overall bit rate mode : Variable
Overall bit rate : 1 738 Kbps
Writing application : Lavf54.36.100

Video
ID : 1
Format : AVC
Format/Info : Advanced Video Codec
Format profile : Main@L3.0
Format settings, CABAC : Yes
Format settings, ReFrames : 4 frames
Codec ID : avc1
Codec ID/Info : Advanced Video Coding
Duration : 25mn 21s
Bit rate : 1 536 Kbps
Width : 860 pixels
Height : 480 pixels
Display aspect ratio : 16:9
Original display aspect ratio : 16:9
Frame rate mode : Constant
Frame rate : 29.970 fps
Color space : YUV
Chroma subsampling : 4:2:0
Bit depth : 8 bits
Scan type : Progressive
Bits/(Pixel*Frame) : 0.124
Stream size : 276 MiB (88%)
Writing library : x264 core 128 r2216 198a7ea
Encoding settings : cabac=1 / ref=1 / deblock=1:0:0 / analyse=0x1:0x111 / me=hex / subme=5 / psy=1 / psy_rd=1.00:0.00 / mixed_ref=0 / me_range=16 / chroma_me=1 / trellis=1 / 8x8dct=0 / cqm=0 / deadzone=21,11 / fast_pskip=1 / chroma_qp_offset=0 / threads=2 / lookahead_threads=1 / sliced_threads=0 / nr=0 / decimate=1 / interlaced=0 / bluray_compat=0 / constrained_intra=0 / bframes=3 / b_pyramid=2 / b_adapt=1 / b_bias=0 / direct=1 / weightb=1 / open_gop=0 / weightp=2 / keyint=60 / keyint_min=25 / scenecut=40 / intra_refresh=0 / rc_lookahead=40 / rc=abr / mbtree=1 / bitrate=1536 / ratetol=1.0 / qcomp=0.60 / qpmin=0 / qpmax=69 / qpstep=4 / ip_ratio=1.40 / aq=1:1.00
Tagged date : UTC 2015-02-26 16:30:14

Audio
ID : 2
Format : AAC
Format/Info : Advanced Audio Codec
Format profile : LC
Codec ID : 40
Duration : 25mn 22s
Duration_LastFrame : -1ms
Bit rate mode : Variable
Bit rate : 128 Kbps
Channel(s) : 2 channels
Channel positions : Front: L R
Sampling rate : 48.0 KHz
Compression mode : Lossy
Stream size : 23.1 MiB (7%)
Tagged date : UTC 2015-02-26 16:30:14
Трекер:  [ 12-Июн-2015 13:30 ]

Размер .torrent файла 13 KB


Размер: 315 MB
Хэш (hash) релиза: b03c266d750e32226bb24db3679a998cf7ee480d
Подписка на обновления:

Еще никто не оставлял запись к записи скачать торрент Kanojo x Kanojo x Kanojo: Sanshimai to no DokiDoki Kyoudou Seikatsu Три подружки: Бурная жизнь с тремя сестричками . Будь первым!

!Обратная связь
//main.js show_panel