Статистика раздачи
Размер:  700 MB   |    Зарегистрирован:  1 год 7 месяцев   |    .torrent скачан:  71 раз   |   

Пиры будут получены при скачивании

 

Скачать порно Le Novizie / The 5 Beginners / Die Beichte der Klosterschulerinnen / Новобранцы ) через торрент бесплатно :: UnionPron.org

 
 
Автор Сообщение

Sakura

avatar Sakura


Le Novizie | The 5 Beginners | Die Beichte der Klosterschulerinnen | Новобранцы
Год производства: 1997 г.
Страна: Italy | Италия
Жанр: Feature
Продолжительность: 01:27:59
Язык: Немецкий | German

Режиссер: Luca Damiano
Студия: Gold Pictures (RD Communications)

В ролях:
Actresses
[url=...1180812]Anita Dark[/url] [Facial A2M]
Baby Nielsen [Anal Facial]
[url=...1744613]Eva Falk[/url] [Facial A2M]
Helien [MastOnly]
Jeanette La Douce [Anal Facial]
[url=...1490736]Karen Lancaume[/url] [Anal Facial]
Sara Bernat (as Sara Bernart) [Facial A2M]

Actors
Anthony Di Nunzio (as Anthony)
Eros Cristaldi
Francesco Malcom
Jean-Yves Le Castel (as Jean Yves Le Castel)
Reinhardt
Roberto Malone
Zenza Raggi

Описание: Un film di Luca Damiano dove dirige un cast di stars di fama mondiale con una trama tutta particolare.

Scene Breakdowns:
Scene 1. Sara Bernat, Francesco Malcom
Scene 2. Jeanette La Douce, Anthony Di Nunzio
Scene 3. [url=...1744613]Eva Falk[/url], [url=...1490736]Karen Lancaume[/url], Roberto Malone
Scene 4. Helien
Scene 5. Baby Nielsen, Eros Cristaldi
Scene 6. [url=...1180812]Anita Dark[/url], Reinhardt, Zenza Raggi
Scene 7. [url=...1180812]Anita Dark[/url], Baby Nielsen, [url=...1744613]Eva Falk[/url], Jeanette La Douce, Sara Bernat, Jean-Yves Le Castel
General
Format : AVI
Format/Info : Audio Video Interleave
File size : 699 MiB
Duration : 1h 27mn
Overall bit rate : 1 111 Kbps
Writing application : VirtualDubMod 1.5.4.1 (build 2178/release)
Writing library : VirtualDubMod build 2178/release
Video
Format : MPEG-4 Visual
Format profile : Streaming Video@L1
Format settings, BVOP : Yes
Format settings, QPel : No
Format settings, GMC : No warppoints
Format settings, Matrix : Custom
Codec ID : XVID
Codec ID/Hint : XviD
Duration : 1h 27mn
Bit rate : 920 Kbps
Width : 640 pixels
Height : 480 pixels
Display aspect ratio : 4/3
Frame rate : 25.000 fps
Resolution : 24 bits
Colorimetry : 4:2:0
Scan type : Progressive
Bits/(Pixel*Frame) : 0.120
Stream size : 579 MiB (83%)
Writing library : XviD 64
Audio
Format : MPEG Audio
Format version : Version 1
Format profile : Layer 3
Codec ID : 55
Codec ID/Hint : MP3
Duration : 1h 27mn
Bit rate mode : Variable
Bit rate : 178 Kbps
Nominal bit rate : 192 Kbps
Channel(s) : 2 channels
Sampling rate : 48.0 KHz
Resolution : 16 bits
Stream size : 112 MiB (16%)
Alignment : Aligned on interleaves
Interleave, duration : 24 ms (0.60 video frame)
Interleave, preload duration : 572 ms
Writing library : LAME3.98r
Encoding settings : -m j -V 4 -q 2 -lowpass 18.6 --abr 192
Качество видео: DVDRip
Формат видео: AVI
Видео: MPEG4, XviD, 640x480 (4:3), 25.000 fps, 920 Kbps (0.120 bit/pixel)
Аудио: MP3, 48.0 KHz, 2 ch, 178 Kbps, VBR
[url=...988846]Le Novizie (1.15 GB)[/url]
Трекер:  [ 08-Июн-2015 21:30 ]

Размер .torrent файла 14 KB


Размер: 700 MB
Хэш (hash) релиза: b4c27e6597c901f84e3195b239edff42f4136b22
Подписка на обновления:

Еще никто не оставлял запись к записи скачать торрент Le Novizie The 5 Beginners . Будь первым!

!Обратная связь
//main.js show_panel