Статистика раздачи
Размер:  701 MB   |    Зарегистрирован:  1 год 7 месяцев   |    .torrent скачан:  81 раз   |   

Пиры будут получены при скачивании

 

Скачать порно Abdul El Muriad / Sperma deines Feindes / Абдул Эль Мерид через торрент бесплатно :: UnionPron.org

 
 
Автор Сообщение

Sakura

avatar Sakura


Abdul El Muriad | Sperma deines Feindes | Абдул Эль Мерид

[url=...1088220] [/url]
Год производства: 1999 г.
Страна: Италия | Italy
Жанр: Feature
Продолжительность: 01:16:28
Язык: Немецкий | German

Режиссер: Mauro Silva | Nicky Ranieri | Jack Crawler
Студия: Nicky Ranieri Productions | Mario Salieri Entertainment Group | Goldlight

В ролях:
Actresses
[url=...1148741]Dolly Golden[/url]
[url=...1490736]Karen Lancaume[/url]
[url=...1169417]Madelina Ray[/url] [Anal]
[url=...1088220]Olivia del Rio[/url]

Actors
Conny Dachs (as Conny Crow)
Philippe Dean
Reinhardt

Описание: Немецкая версия фильма [url=...997081]Abdul El Muriad (960 MB) [it][/url] !

Scene Breakdowns:
Scene 1. [url=...1088220]Olivia del Rio[/url], Philippe Dean
Scene 2. [url=...1148741]Dolly Golden[/url], [url=...1169417]Madelina Ray[/url], Conny Dachs, Philippe Dean
Scene 3. [url=...1169417]Madelina Ray[/url], Reinhardt
Scene 4. [url=...1490736]Karen Lancaume[/url], Reinhardt
General
Format : AVI
Format/Info : Audio Video Interleave
File size : 700 MiB
Duration : 1h 16mn
Overall bit rate : 1 279 Kbps
Writing application : VirtualDubMod 1.5.4.1 (build 2178/release)
Writing library : VirtualDubMod build 2178/release
Video
Format : MPEG-4 Visual
Format profile : Streaming Video@L1
Format settings, BVOP : Yes
Format settings, QPel : No
Format settings, GMC : No warppoints
Format settings, Matrix : Custom
Codec ID : XVID
Codec ID/Hint : XviD
Duration : 1h 16mn
Bit rate : 1 093 Kbps
Width : 640 pixels
Height : 480 pixels
Display aspect ratio : 4/3
Frame rate : 25.000 fps
Resolution : 24 bits
Colorimetry : 4:2:0
Scan type : Progressive
Bits/(Pixel*Frame) : 0.142
Stream size : 598 MiB (85%)
Writing library : XviD 64
Audio
Format : MPEG Audio
Format version : Version 1
Format profile : Layer 3
Codec ID : 55
Codec ID/Hint : MP3
Duration : 1h 16mn
Bit rate mode : Variable
Bit rate : 173 Kbps
Nominal bit rate : 192 Kbps
Channel(s) : 2 channels
Sampling rate : 48.0 KHz
Resolution : 16 bits
Stream size : 94.9 MiB (14%)
Alignment : Aligned on interleaves
Interleave, duration : 24 ms (0.60 video frame)
Interleave, preload duration : 558 ms
Writing library : LAME3.98r
Encoding settings : -m j -V 4 -q 2 -lowpass 18.6 --abr 192
Качество видео: DVDRip
Формат видео: AVI
Видео: MPEG4, XviD, 640x480 (4:3), 25.000 fps, 1 093 Kbps (0.142 bit/pixel)
Аудио: MP3, 48.0 KHz, 2 ch, 173 Kbps, VBR
Трекер:  [ 07-Июн-2015 22:00 ]

Размер .torrent файла 14 KB


Размер: 701 MB
Хэш (hash) релиза: d2eebeb86a4a890f3defab7f75addf1b8b0e6f89
Подписка на обновления:

Еще никто не оставлял запись к записи скачать торрент Abdul El Muriad Sperma deines Feindes . Будь первым!

!Обратная связь
//main.js show_panel